<?xml version="1.0" standalone="no"?>
<!DOCTYPE svg PUBLIC "-//W3C//DTD SVG 1.1//EN" "http://www.w3.org/Graphics/SVG/1.1/DTD/svg11.dtd" >
<svg xmlns="http://www.w3.org/2000/svg">
<metadata>Generated by IcoMoon</metadata>
<defs>
<font id="rango" horiz-adv-x="1024">
<font-face units-per-em="1024" ascent="960" descent="-64" />
<missing-glyph horiz-adv-x="1024" />
<glyph unicode="&#x20;" horiz-adv-x="512" d="" />
<glyph unicode="&#xe900;" glyph-name="activity" d="M636.343 27.429c-18.286 0-32.914 10.971-40.229 29.257l-208.457 636.343-84.114-259.657c-7.314-18.286-21.943-29.257-40.229-29.257h-171.886c-21.943 0-40.229 18.286-40.229 40.229s18.286 40.229 40.229 40.229h138.971l117.029 351.086c7.314 18.286 21.943 29.257 40.229 29.257s32.914-10.971 40.229-29.257l212.114-636.343 87.771 259.657c7.314 18.286 21.943 29.257 40.229 29.257h168.229c21.943 0 40.229-18.286 40.229-40.229s-18.286-40.229-40.229-40.229h-138.971l-113.371-351.086c-10.971-18.286-25.6-29.257-47.543-29.257z" />
<glyph unicode="&#xe901;" glyph-name="announcement" d="M603.429 740.571c-10.971 7.314-21.943 7.314-32.914 3.657l-277.943-95.086h-51.2c-91.429 0-168.229-76.8-168.229-168.229v-62.171c0-91.429 76.8-168.229 168.229-168.229h43.886l285.257-98.743c3.657 0 7.314-3.657 10.971-3.657 7.314 0 14.629 3.657 21.943 7.314 10.971 7.314 14.629 18.286 14.629 29.257v526.629c0 10.971-3.657 21.943-14.629 29.257zM142.629 418.743v62.171c0 54.857 40.229 95.086 95.086 95.086h14.629v-252.343h-10.971c-54.857 0-98.743 40.229-98.743 95.086zM544.914 235.886l-219.429 76.8v270.629l219.429 76.8v-424.229zM720.457 693.029c-18.286 0-36.571-14.629-40.229-32.914 0-21.943 14.629-36.571 32.914-40.229 91.429-7.314 164.571-80.457 164.571-171.886s-73.143-164.571-164.571-171.886c-21.943 0-36.571-18.286-32.914-40.229 0-18.286 18.286-32.914 36.571-32.914h3.657c131.657 7.314 230.4 117.029 230.4 245.029 3.657 128-98.743 237.714-230.4 245.029zM727.771 411.429c-18.286-3.657-36.571-18.286-32.914-40.229 3.657-18.286 18.286-32.914 36.571-32.914h3.657c54.857 7.314 98.743 54.857 98.743 109.714 0 58.514-40.229 102.4-98.743 109.714-18.286 3.657-36.571-10.971-40.229-32.914-3.657-18.286 10.971-36.571 32.914-40.229 14.629 0 32.914-14.629 32.914-36.571 0-18.286-18.286-36.571-32.914-36.571z" />
<glyph unicode="&#xe902;" glyph-name="arrow-circle-down" d="M512 923.429c-263.314 0-475.429-212.114-475.429-475.429s212.114-475.429 475.429-475.429 475.429 212.114 475.429 475.429-212.114 475.429-475.429 475.429zM512 45.714c-223.086 0-402.286 179.2-402.286 402.286s179.2 402.286 402.286 402.286c106.057 0 208.457-43.886 285.257-117.029 73.143-76.8 117.029-179.2 117.029-285.257 0-223.086-179.2-402.286-402.286-402.286zM669.257 437.029l-120.686-120.686v351.086c0 21.943-14.629 36.571-36.571 36.571s-36.571-14.629-36.571-36.571v-351.086l-120.686 120.686c-14.629 14.629-36.571 14.629-51.2 0s-14.629-36.571 0-51.2l182.857-182.857c7.314-7.314 14.629-10.971 25.6-10.971s18.286 3.657 25.6 10.971l182.857 182.857c14.629 14.629 14.629 36.571 0 51.2s-36.571 14.629-51.2 0z" />
<glyph unicode="&#xe903;" glyph-name="arrow-circle-left" d="M512 923.429c-263.314 0-475.429-212.114-475.429-475.429s212.114-475.429 475.429-475.429 475.429 212.114 475.429 475.429-212.114 475.429-475.429 475.429zM797.257 162.743c-76.8-73.143-179.2-117.029-285.257-117.029-223.086 0-402.286 179.2-402.286 402.286s179.2 402.286 402.286 402.286 402.286-179.2 402.286-402.286c0-106.057-43.886-208.457-117.029-285.257zM731.429 484.571h-351.086l120.686 120.686c14.629 14.629 14.629 36.571 0 51.2s-36.571 14.629-51.2 0l-182.857-182.857c-7.314-7.314-10.971-14.629-10.971-25.6s3.657-18.286 10.971-25.6l182.857-182.857c14.629-14.629 36.571-14.629 51.2 0s14.629 36.571 0 51.2l-120.686 120.686h351.086c21.943 0 36.571 14.629 36.571 36.571s-14.629 36.571-36.571 36.571z" />
<glyph unicode="&#xe904;" glyph-name="arrow-circle-right" d="M512 923.429c-263.314 0-475.429-212.114-475.429-475.429s212.114-475.429 475.429-475.429 475.429 212.114 475.429 475.429-212.114 475.429-475.429 475.429zM512 45.714c-223.086 0-402.286 179.2-402.286 402.286 0 106.057 43.886 208.457 117.029 285.257 76.8 73.143 179.2 117.029 285.257 117.029 223.086 0 402.286-179.2 402.286-402.286s-179.2-402.286-402.286-402.286zM574.171 656.457c-14.629 14.629-36.571 14.629-51.2 0s-14.629-36.571 0-51.2l120.686-120.686h-351.086c-21.943 0-36.571-14.629-36.571-36.571s14.629-36.571 36.571-36.571h351.086l-120.686-120.686c-14.629-14.629-14.629-36.571 0-51.2s36.571-14.629 51.2 0l182.857 182.857c7.314 7.314 10.971 14.629 10.971 25.6s-3.657 18.286-10.971 25.6l-182.857 182.857z" />
<glyph unicode="&#xe905;" glyph-name="arrow-circle-up" d="M512 923.429c-263.314 0-475.429-212.114-475.429-475.429s212.114-475.429 475.429-475.429 475.429 212.114 475.429 475.429-212.114 475.429-475.429 475.429zM512 45.714c-106.057 0-208.457 43.886-285.257 117.029-73.143 76.8-117.029 179.2-117.029 285.257 0 223.086 179.2 402.286 402.286 402.286s402.286-179.2 402.286-402.286-179.2-402.286-402.286-402.286zM537.6 693.029c-7.314 7.314-14.629 10.971-25.6 10.971s-18.286-3.657-25.6-10.971l-182.857-182.857c-14.629-14.629-14.629-36.571 0-51.2s36.571-14.629 51.2 0l120.686 120.686v-351.086c0-21.943 14.629-36.571 36.571-36.571s36.571 14.629 36.571 36.571v351.086l120.686-120.686c14.629-14.629 36.571-14.629 51.2 0s14.629 36.571 0 51.2l-182.857 182.857z" />
<glyph unicode="&#xe906;" glyph-name="arrow-down" d="M512 301.714c-21.943 0-40.229 7.314-54.857 21.943l-208.457 208.457c-14.629 14.629-14.629 36.571 0 51.2s36.571 14.629 51.2 0l212.114-208.457 212.114 208.457c14.629 14.629 36.571 14.629 51.2 0s14.629-36.571 0-51.2l-208.457-208.457c-14.629-14.629-36.571-21.943-54.857-21.943z" />
<glyph unicode="&#xe907;" glyph-name="arrow-left" d="M621.714 177.371c-10.971 0-18.286 3.657-25.6 10.971l-208.457 208.457c-14.629 10.971-21.943 29.257-21.943 51.2 0 18.286 7.314 40.229 21.943 54.857l208.457 208.457c14.629 14.629 36.571 14.629 51.2 0s14.629-36.571 0-51.2l-208.457-212.114 208.457-212.114c14.629-14.629 14.629-36.571 0-51.2-7.314-7.314-14.629-7.314-25.6-7.314z" />
<glyph unicode="&#xe908;" glyph-name="arrow-right" d="M402.286 177.371c-10.971 0-18.286 3.657-25.6 10.971-14.629 14.629-14.629 36.571 0 51.2l208.457 208.457-208.457 212.114c-14.629 14.629-14.629 36.571 0 51.2s36.571 14.629 51.2 0l208.457-208.457c14.629-14.629 21.943-32.914 21.943-54.857 0-18.286-7.314-40.229-21.943-54.857l-208.457-208.457c-7.314-7.314-14.629-7.314-25.6-7.314z" />
<glyph unicode="&#xe909;" glyph-name="arrow-up" d="M746.057 301.714c-10.971 0-18.286 3.657-25.6 10.971l-208.457 208.457-212.114-208.457c-14.629-14.629-36.571-14.629-51.2 0s-14.629 36.571 0 51.2l208.457 208.457c29.257 29.257 80.457 29.257 106.057 0l208.457-208.457c14.629-14.629 14.629-36.571 0-51.2-3.657-7.314-14.629-10.971-25.6-10.971z" />
<glyph unicode="&#xe90a;" glyph-name="auction" d="M822.857 689.371h-274.286v87.771c0 47.543-36.571 84.114-84.114 84.114h-215.771c-47.543 0-84.114-36.571-84.114-84.114v-402.286c0-47.543 36.571-84.114 84.114-84.114h212.114c47.543 0 84.114 36.571 84.114 84.114v87.771h274.286c62.171 0 113.371 51.2 113.371 113.371s-47.543 113.371-109.714 113.371zM475.429 374.857c0-7.314-3.657-10.971-10.971-10.971h-215.771c-7.314 0-10.971 3.657-10.971 10.971v40.229h186.514c21.943 0 36.571 14.629 36.571 36.571s-14.629 36.571-36.571 36.571h-186.514v288.914c0 7.314 3.657 10.971 10.971 10.971h212.114c7.314 0 14.629-7.314 14.629-10.971v-402.286zM822.857 535.771h-274.286v80.457h274.286c21.943 0 40.229-18.286 40.229-40.229s-18.286-40.229-40.229-40.229zM157.257 151.771h380.343c21.943 0 36.571 14.629 36.571 36.571s-14.629 36.571-36.571 36.571h-380.343c-21.943 0-36.571-14.629-36.571-36.571s18.286-36.571 36.571-36.571zM614.4 115.2h-519.314c-21.943 0-36.571-14.629-36.571-36.571s14.629-36.571 36.571-36.571h519.314c21.943 0 36.571 14.629 36.571 36.571s-18.286 36.571-36.571 36.571z" />
<glyph unicode="&#xe90b;" glyph-name="baby" d="M709.487 667.428c-10.971 62.171-51.2 113.371-106.057 142.629v40.229c0 51.2-40.229 91.429-91.429 91.429s-91.429-40.229-91.429-91.429v-40.229c-54.857-29.257-95.086-80.457-106.057-142.629-25.6-18.286-40.229-47.543-40.229-80.457v-486.4c0-80.457 65.829-146.286 146.286-146.286h182.857c80.457 0 146.286 65.829 146.286 146.286v486.4c0 32.914-18.286 62.171-40.229 80.457zM468.115 751.542c14.629 3.657 25.6 18.286 25.6 32.914v65.829c0 10.971 7.314 18.286 18.286 18.286s18.286-7.314 18.286-18.286v-65.829c0-14.629 10.971-29.257 25.6-32.914 32.914-10.971 58.514-36.571 73.143-65.829h-230.4c10.971 29.257 36.571 54.857 69.486 65.829zM676.572 100.57c0-40.229-32.914-73.143-73.143-73.143h-182.857c-40.229 0-73.143 32.914-73.143 73.143v36.571h109.714c21.943 0 36.571 14.629 36.571 36.571s-14.629 36.571-36.571 36.571h-109.714v73.143h109.714c21.943 0 36.571 14.629 36.571 36.571s-14.629 36.571-36.571 36.571h-109.714v73.143h109.714c21.943 0 36.571 14.629 36.571 36.571s-14.629 36.571-36.571 36.571h-109.714v84.114c0 10.971 7.314 18.286 14.629 25.6 3.657 0 7.314 3.657 10.971 3.657h277.943c3.657 0 7.314 0 10.971-3.657 10.971-3.657 14.629-14.629 14.629-25.6v-486.4z" />
<glyph unicode="&#xe90c;" glyph-name="bag" d="M786.286 539.429v128c0 69.486-47.543 124.343-109.714 142.629v76.8c0 21.943-14.629 36.571-36.571 36.571s-36.571-14.629-36.571-36.571v-73.143h-182.857v73.143c0 21.943-14.629 36.571-36.571 36.571s-36.571-14.629-36.571-36.571v-76.8c-62.171-14.629-109.714-73.143-109.714-142.629v-131.657c-43.886-25.6-73.143-73.143-73.143-124.343v-292.571c0-80.457 65.829-146.286 146.286-146.286h402.286c80.457 0 146.286 65.829 146.286 146.286v292.571c0 54.857-29.257 102.4-73.143 128zM310.857 667.429c0 40.229 32.914 73.143 73.143 73.143h256c40.229 0 73.143-32.914 73.143-73.143v-109.714h-402.286v109.714zM676.571 411.429v-73.143c0-40.229-32.914-73.143-73.143-73.143h-182.857c-40.229 0-73.143 32.914-73.143 73.143v73.143c0 40.229 32.914 73.143 73.143 73.143h182.857c40.229 0 73.143-32.914 73.143-73.143zM786.286 118.857c0-40.229-32.914-73.143-73.143-73.143h-402.286c-40.229 0-73.143 32.914-73.143 73.143v292.571c0 32.914 25.6 62.171 54.857 69.486-10.971-21.943-18.286-43.886-18.286-69.486v-73.143c0-80.457 65.829-146.286 146.286-146.286h182.857c80.457 0 146.286 65.829 146.286 146.286v73.143c0 25.6-7.314 51.2-18.286 69.486 32.914-7.314 54.857-36.571 54.857-69.486v-292.571z" />
<glyph unicode="&#xe90d;" glyph-name="ball-2" d="M512 927.086c-80.457 0-160.914-21.943-226.743-58.514-3.657 0-7.314-3.657-10.971-7.314-146.286-80.457-241.371-237.714-241.371-413.257 0-263.314 215.771-479.086 479.086-479.086s479.086 215.771 479.086 479.086-215.771 479.086-479.086 479.086zM914.286 484.571h-274.286c7.314 157.257 65.829 256 98.743 299.886 98.743-69.486 164.571-175.543 175.543-299.886zM676.571 817.371c-40.229-54.857-98.743-168.229-106.057-332.8h-106.057c-7.314 182.857-62.171 288.914-106.057 340.114 47.543 18.286 98.743 29.257 153.6 29.257 58.514 0 113.371-10.971 164.571-36.571zM292.571 788.114c29.257-32.914 91.429-120.686 98.743-303.543h-281.6c10.971 128 80.457 237.714 182.857 303.543zM109.714 411.429h281.6c-10.971-164.571-80.457-263.314-109.714-296.229-95.086 65.829-160.914 171.886-171.886 296.229zM347.429 78.629c36.571 47.543 106.057 160.914 117.029 332.8h106.057c7.314-182.857 65.829-285.257 109.714-332.8-51.2-21.943-106.057-36.571-164.571-36.571-62.171 0-117.029 14.629-168.229 36.571zM742.4 115.2c-29.257 29.257-91.429 113.371-102.4 296.229h274.286c-10.971-124.343-76.8-230.4-171.886-296.229z" />
<glyph unicode="&#xe90e;" glyph-name="bar-code" d="M786.286 173.714c-21.943 0-36.571 14.629-36.571 36.571v475.429c0 21.943 14.629 36.571 36.571 36.571s36.571-14.629 36.571-36.571v-475.429c0-21.943-14.629-36.571-36.571-36.571zM420.571 173.714c-21.943 0-36.571 14.629-36.571 36.571v475.429c0 21.943 14.629 36.571 36.571 36.571s36.571-14.629 36.571-36.571v-475.429c0-21.943-14.629-36.571-36.571-36.571zM640 173.714c-21.943 0-36.571 14.629-36.571 36.571v475.429c0 21.943 14.629 36.571 36.571 36.571s36.571-14.629 36.571-36.571v-475.429c0-21.943-14.629-36.571-36.571-36.571zM237.714 173.714c-21.943 0-36.571 14.629-36.571 36.571v475.429c0 21.943 14.629 36.571 36.571 36.571s36.571-14.629 36.571-36.571v-475.429c0-21.943-14.629-36.571-36.571-36.571z" />
<glyph unicode="&#xe90f;" glyph-name="batch" d="M815.543 733.257c-25.6 10.971-43.886 40.229-40.229 69.486 7.314 58.514-18.286 109.714-69.486 138.971-47.543 29.257-109.714 25.6-153.6-7.314-25.6-18.286-58.514-18.286-84.114 0-43.886 29.257-102.4 29.257-153.6 0-47.543-29.257-73.143-80.457-65.829-131.657 3.657-29.257-14.629-58.514-40.229-69.486-51.2-21.943-84.114-73.143-84.114-128s32.914-106.057 84.114-128c25.6-10.971 43.886-40.229 40.229-69.486-7.314-58.514 18.286-109.714 69.486-138.971 10.971-7.314 21.943-10.971 32.914-14.629v-245.029c0-29.257 14.629-51.2 40.229-65.829 10.971-7.314 21.943-7.314 32.914-7.314 18.286 0 32.914 3.657 47.543 14.629l47.543 36.571 25.6-25.6c21.943-21.943 51.2-25.6 80.457-14.629s43.886 36.571 43.886 65.829v237.714c10.971 3.657 25.6 7.314 36.571 14.629 47.543 29.257 76.8 80.457 69.486 135.314-3.657 29.257 14.629 58.514 40.229 69.486 51.2 21.943 84.114 73.143 84.114 128 0 62.171-32.914 113.371-84.114 135.314zM570.514 42.057c-25.6 25.6-69.486 29.257-98.743 7.314l-40.229-36.571c-3.657-3.657-3.657 0-3.657 0v245.029c14.629 3.657 32.914 10.971 47.543 21.943 25.6 18.286 58.514 18.286 80.457 0 14.629-10.971 29.257-18.286 43.886-21.943v-241.371l-29.257 25.6zM786.286 543.086c-54.857-25.6-87.771-84.114-84.114-142.629 3.657-29.257-7.314-51.2-32.914-65.829-21.943-14.629-51.2-10.971-73.143 7.314-47.543 32.914-117.029 32.914-168.229 0-21.943-18.286-51.2-18.286-73.143-3.657s-36.571 40.229-32.914 65.829c3.657 58.514-29.257 117.029-84.114 142.629-25.6 10.971-40.229 32.914-40.229 62.171 0 21.943 14.629 43.886 40.229 58.514 54.857 21.943 87.771 80.457 84.114 142.629-3.657 25.6 7.314 47.543 32.914 62.171 10.971 7.314 21.943 10.971 36.571 10.971 10.971 0 25.6-3.657 40.229-10.971 47.543-32.914 117.029-32.914 168.229 0 21.943 18.286 51.2 18.286 73.143 3.657s36.571-40.229 32.914-65.829c-3.657-58.514 29.257-117.029 84.114-142.629 25.6-10.971 40.229-32.914 40.229-62.171-3.657-29.257-18.286-51.2-43.886-62.171zM512 813.714c-117.029 0-212.114-95.086-212.114-212.114s95.086-212.114 212.114-212.114 212.114 95.086 212.114 212.114-95.086 212.114-212.114 212.114zM512 462.629c-76.8 0-138.971 62.171-138.971 138.971s62.171 138.971 138.971 138.971c76.8 0 138.971-62.171 138.971-138.971s-62.171-138.971-138.971-138.971z" />
<glyph unicode="&#xe910;" glyph-name="book" d="M826.514 927.086h-585.143c-62.171 0-109.714-47.543-109.714-109.714v-735.086c0-62.171 47.543-109.714 109.714-109.714h577.829c40.229 0 73.143 32.914 73.143 73.143v815.543c0 32.914-29.257 65.829-65.829 65.829zM581.486 616.229v237.714h106.057v-226.743c-14.629 21.943-36.571 29.257-47.543 29.257-18.286 0-36.571-7.314-47.543-25.6l-10.971-14.629zM204.8 78.629v738.743c0 21.943 14.629 36.571 36.571 36.571h18.286v-808.229h-18.286c-21.943-3.657-36.571 14.629-36.571 32.914zM819.2 42.057h-486.4v811.886h175.543v-252.343c0-36.571 18.286-65.829 43.886-76.8 21.943-7.314 47.543 0 65.829 18.286l18.286 21.943 7.314-14.629 3.657-3.657c10.971-18.286 29.257-25.6 47.543-25.6 7.314 0 10.971 0 18.286 3.657 29.257 10.971 47.543 40.229 47.543 76.8v252.343h58.514v-811.886z" />
<glyph unicode="&#xe911;" glyph-name="calender" d="M833.829 835.657h-80.457v40.229c0 21.943-14.629 36.571-36.571 36.571s-36.571-14.629-36.571-36.571v-40.229h-343.771v40.229c0 21.943-14.629 36.571-36.571 36.571s-36.571-14.629-36.571-36.571v-40.229h-69.486c-73.143 0-135.314-62.171-135.314-135.314v-113.371c-3.657-3.657-3.657-10.971-3.657-14.629s0-10.971 3.657-14.629v-438.857c0-73.143 62.171-135.314 135.314-135.314h640c73.143 0 135.314 62.171 135.314 135.314v581.486c0 73.143-62.171 135.314-135.314 135.314zM193.829 762.514h69.486v-40.229c0-21.943 14.629-36.571 36.571-36.571s36.571 14.629 36.571 36.571v40.229h343.771v-40.229c0-21.943 14.629-36.571 36.571-36.571s36.571 14.629 36.571 36.571v40.229h80.457c36.571 0 62.171-25.6 62.171-62.171v-91.429h-764.343v91.429c0 36.571 25.6 62.171 62.171 62.171zM833.829 56.686h-640c-36.571 0-62.171 25.6-62.171 62.171v416.914h764.343v-416.914c0-36.571-25.6-62.171-62.171-62.171z" />
<glyph unicode="&#xe912;" glyph-name="camera" d="M903.314 722.286h-175.543c-3.657 0-3.657 0-7.314 3.657-21.943 29.257-91.429 106.057-138.971 106.057h-138.971c-47.543 0-117.029-76.8-138.971-106.057 0 0-3.657-3.657-7.314-3.657h-179.2c-54.857 0-95.086-40.229-95.086-87.771v-482.743c0-47.543 43.886-87.771 95.086-87.771h786.286c54.857 0 95.086 40.229 95.086 87.771v482.743c3.657 47.543-40.229 87.771-95.086 87.771zM928.914 151.771c0-7.314-10.971-14.629-21.943-14.629h-789.943c-14.629 0-21.943 7.314-21.943 14.629v482.743c0 7.314 10.971 14.629 21.943 14.629h175.543c25.6 0 51.2 10.971 65.829 32.914 32.914 40.229 73.143 73.143 84.114 76.8h131.657c14.629-3.657 54.857-36.571 84.114-76.8 14.629-18.286 40.229-32.914 65.829-32.914h175.543c14.629 0 21.943-7.314 21.943-14.629l7.314-482.743zM508.343 612.571c-109.714 0-201.143-91.429-201.143-201.143s91.429-201.143 201.143-201.143 201.143 91.429 201.143 201.143-91.429 201.143-201.143 201.143zM508.343 283.429c-69.486 0-128 58.514-128 128s58.514 128 128 128 128-58.514 128-128-54.857-128-128-128zM855.771 557.714c0-30.297-24.56-54.857-54.857-54.857s-54.857 24.56-54.857 54.857c0 30.297 24.56 54.857 54.857 54.857s54.857-24.56 54.857-54.857z" />
<glyph unicode="&#xe913;" glyph-name="car" d="M1005.714 341.943c0 102.4-69.486 197.486-182.857 245.029 0 0-3.657 0-3.657 3.657-51.2 98.743-175.543 164.571-307.2 168.229h-3.657c-135.314 0-256-65.829-307.2-168.229-109.714-47.543-182.857-138.971-182.857-241.371 0-58.514 51.2-106.057 117.029-113.371 10.971-58.514 62.171-102.4 124.343-102.4s113.371 43.886 124.343 102.4h263.314c10.971-58.514 62.171-102.4 124.343-102.4s113.371 43.886 124.343 102.4c62.171 10.971 109.714 58.514 109.714 106.057zM742.4 576c-73.143-21.943-138.971-32.914-193.829-36.571v142.629c84.114-7.314 157.257-47.543 193.829-106.057zM475.429 685.714v-146.286c-95.086 0-164.571 21.943-201.143 36.571 36.571 58.514 113.371 98.743 201.143 109.714zM263.314 210.286c-29.257 0-54.857 25.6-54.857 54.857s25.6 54.857 54.857 54.857 54.857-25.6 54.857-54.857-25.6-54.857-54.857-54.857zM775.314 210.286c-29.257 0-54.857 25.6-54.857 54.857s25.6 54.857 54.857 54.857 54.857-25.6 54.857-54.857-25.6-54.857-54.857-54.857zM892.343 316.343c-18.286 47.543-65.829 80.457-117.029 80.457-54.857 0-98.743-32.914-120.686-80.457h-274.286c-18.286 47.543-65.829 80.457-120.686 80.457s-98.743-32.914-120.686-80.457c-29.257 3.657-51.2 18.286-51.2 40.229 0 69.486 47.543 131.657 124.343 168.229 36.571-18.286 124.343-54.857 266.971-54.857h32.914c80.457 3.657 175.543 18.286 285.257 54.857 80.457-36.571 131.657-102.4 131.657-175.543 3.657-14.629-10.971-32.914-36.571-32.914z" />
<glyph unicode="&#xe914;" glyph-name="card" d="M848.457 780.8h-672.914c-69.486 0-120.686-51.2-120.686-120.686v-424.229c0-69.486 51.2-120.686 120.686-120.686h672.914c32.914 0 65.829 14.629 91.429 40.229 21.943 21.943 32.914 54.857 29.257 80.457v424.229c0 69.486-54.857 120.686-120.686 120.686zM175.543 707.657h672.914c29.257 0 47.543-18.286 47.543-47.543v-62.171h-768v62.171c0 29.257 18.286 47.543 47.543 47.543zM885.029 202.971c-10.971-10.971-21.943-14.629-36.571-14.629h-672.914c-29.257 0-47.543 18.286-47.543 47.543v288.914h768v-292.571c0-7.314-3.657-18.286-10.971-29.257zM614.4 309.029c-21.943 0-36.571-14.629-36.571-36.571v-10.971c0-21.943 14.629-36.571 36.571-36.571s36.571 14.629 36.571 36.571v10.971c0 21.943-18.286 36.571-36.571 36.571zM724.114 309.029c-21.943 0-36.571-14.629-36.571-36.571v-10.971c0-21.943 14.629-36.571 36.571-36.571s36.571 14.629 36.571 36.571v10.971c0 21.943-18.286 36.571-36.571 36.571zM833.829 309.029c-21.943 0-36.571-14.629-36.571-36.571v-10.971c0-21.943 14.629-36.571 36.571-36.571s36.571 14.629 36.571 36.571v10.971c0 21.943-18.286 36.571-36.571 36.571z" />
<glyph unicode="&#xe915;" glyph-name="cart-1" d="M961.829 601.6c-21.943 32.914-62.171 54.857-102.4 54.857h-482.743c-21.943 0-36.571-14.629-36.571-36.571s14.629-36.571 36.571-36.571h482.743c18.286 0 36.571-10.971 43.886-25.6 0 0 0-3.657 3.657-3.657 10.971-18.286 7.314-117.029-40.229-208.457-18.286-36.571-58.514-95.086-113.371-95.086h-325.486c-32.914 0-58.514 21.943-65.829 54.857l-106.057 460.8c-10.971 58.514-65.829 106.057-128 106.057h-51.2c-21.943 0-36.571-14.629-36.571-36.571s14.629-36.571 36.571-36.571h51.2c25.6 0 51.2-21.943 54.857-47.543l102.4-460.8c14.629-65.829 69.486-113.371 138.971-113.371h325.486c76.8 0 142.629 54.857 190.171 157.257 40.229 91.429 62.171 215.771 21.943 266.971zM735.086 155.429c-36.571 0-65.829-29.257-65.829-65.829s29.257-65.829 65.829-65.829 65.829 29.257 65.829 65.829-29.257 65.829-65.829 65.829zM442.514 155.429c-36.571 0-65.829-29.257-65.829-65.829s29.257-65.829 65.829-65.829 65.829 29.257 65.829 65.829-29.257 65.829-65.829 65.829z" />
<glyph unicode="&#xe916;" glyph-name="cart-2" d="M833.829 689.371h-160.914l87.771 109.714c10.971 14.629 7.314 36.571-7.314 51.2-14.629 10.971-40.229 10.971-51.2-3.657l-124.343-153.6h-387.657c-80.457 0-146.286-65.829-146.286-146.286v-3.657l36.571-358.4c0-76.8 65.829-142.629 146.286-142.629h566.857c80.457 0 146.286 62.171 146.286 142.629l36.571 358.4v3.657c3.657 76.8-65.829 142.629-142.629 142.629zM870.4 188.343v-3.657c0-40.229-32.914-73.143-73.143-73.143h-570.514c-36.571 0-73.143 36.571-73.143 73.143v3.657l-36.571 354.743c0 36.571 36.571 73.143 73.143 73.143h325.486l-32.914-40.229c-10.971-14.629-10.971-40.229 3.657-51.2 7.314-3.657 14.629-7.314 21.943-7.314 10.971 0 21.943 3.657 29.257 14.629l69.486 84.114h219.429c36.571 0 73.143-32.914 73.143-73.143l-29.257-354.743zM296.229 462.629c-21.943 0-36.571-14.629-36.571-36.571v-168.229c0-21.943 14.629-36.571 36.571-36.571s36.571 14.629 36.571 36.571v168.229c0 21.943-14.629 36.571-36.571 36.571zM515.657 462.629c-21.943 0-36.571-14.629-36.571-36.571v-168.229c0-21.943 14.629-36.571 36.571-36.571s36.571 14.629 36.571 36.571v168.229c0 21.943-14.629 36.571-36.571 36.571zM735.086 462.629c-21.943 0-36.571-14.629-36.571-36.571v-168.229c0-21.943 14.629-36.571 36.571-36.571s36.571 14.629 36.571 36.571v168.229c0 21.943-14.629 36.571-36.571 36.571z" />
<glyph unicode="&#xe917;" glyph-name="cart-3" d="M661.943 689.371c-21.943 0-36.571-14.629-36.571-36.571 0-58.514-51.2-109.714-113.371-109.714s-113.371 51.2-113.371 109.714c0 21.943-14.629 36.571-36.571 36.571s-36.571-14.629-36.571-36.571c0-98.743 84.114-182.857 186.514-182.857s186.514 84.114 186.514 182.857c0 18.286-14.629 36.571-36.571 36.571zM782.629 908.8h-541.257c-54.857 0-102.4-47.543-102.4-102.4v-713.143c0-54.857 47.543-102.4 102.4-102.4h537.6c54.857 0 102.4 47.543 102.4 102.4v713.143c0 54.857-43.886 102.4-98.743 102.4zM241.371 835.657h537.6c14.629 0 29.257-14.629 29.257-29.257v-10.971c-10.971 3.657-18.286 3.657-29.257 3.657h-537.6c-10.971 0-18.286-3.657-29.257-3.657v10.971c3.657 14.629 14.629 29.257 29.257 29.257zM808.229 89.6c0-14.629-14.629-29.257-29.257-29.257h-537.6c-14.629 0-29.257 14.629-29.257 29.257v607.086c0 14.629 14.629 29.257 29.257 29.257h537.6c14.629 0 29.257-14.629 29.257-29.257v-607.086z" />
<glyph unicode="&#xe918;" glyph-name="circel-1" d="M512 938.057c-270.629 0-490.057-219.429-490.057-490.057s219.429-490.057 490.057-490.057 490.057 219.429 490.057 490.057-219.429 490.057-490.057 490.057zM512 31.086c-230.4 0-416.914 186.514-416.914 416.914s186.514 416.914 416.914 416.914 416.914-186.514 416.914-416.914-186.514-416.914-416.914-416.914zM512 700.343c-138.971 0-252.343-113.371-252.343-252.343s113.371-252.343 252.343-252.343 252.343 113.371 252.343 252.343-113.371 252.343-252.343 252.343zM512 268.8c-98.743 0-179.2 80.457-179.2 179.2s80.457 179.2 179.2 179.2c98.743 0 179.2-80.457 179.2-179.2s-80.457-179.2-179.2-179.2z" />
<glyph unicode="&#xe919;" glyph-name="circel" d="M512-1.829c-248.686 0-449.829 201.143-449.829 449.829s201.143 449.829 449.829 449.829 449.829-201.143 449.829-449.829-201.143-449.829-449.829-449.829zM512 824.686c-208.457 0-376.686-168.229-376.686-376.686s168.229-376.686 376.686-376.686c208.457 0 376.686 168.229 376.686 376.686s-168.229 376.686-376.686 376.686z" />
<glyph unicode="&#xe91a;" glyph-name="circle-1" d="M512 206.629c-131.657 0-241.371 106.057-241.371 241.371 0 131.657 106.057 241.371 241.371 241.371 131.657 0 241.371-106.057 241.371-241.371 0-131.657-109.714-241.371-241.371-241.371zM512 616.229c-91.429 0-168.229-76.8-168.229-168.229s76.8-168.229 168.229-168.229 168.229 76.8 168.229 168.229-76.8 168.229-168.229 168.229z" />
<glyph unicode="&#xe91b;" glyph-name="circle-2" d="M512 243.2c-113.371 0-204.8 91.429-204.8 204.8s91.429 204.8 204.8 204.8c113.371 0 204.8-91.429 204.8-204.8s-91.429-204.8-204.8-204.8z" />
<glyph unicode="&#xe91c;" glyph-name="circle-check" d="M512-42.057c-270.629 0-490.057 219.429-490.057 490.057s219.429 490.057 490.057 490.057 490.057-219.429 490.057-490.057-219.429-490.057-490.057-490.057zM512 864.914c-230.4 0-416.914-186.514-416.914-416.914s186.514-416.914 416.914-416.914c230.4 0 416.914 186.514 416.914 416.914s-186.514 416.914-416.914 416.914zM512 195.657c-138.971 0-252.343 113.371-252.343 252.343s113.371 252.343 252.343 252.343 252.343-113.371 252.343-252.343-113.371-252.343-252.343-252.343z" />
<glyph unicode="&#xe91d;" glyph-name="clear" d="M819.2 766.171h-398.629c-29.257 0-54.857-10.971-73.143-29.257l-223.086-223.086c-25.6-25.6-25.6-65.829-3.657-91.429l223.086-252.343c18.286-21.943 47.543-36.571 76.8-36.571h402.286c58.514 0 106.057 47.543 106.057 106.057v424.229c-7.314 54.857-51.2 102.4-109.714 102.4zM848.457 232.229c0-18.286-14.629-32.914-32.914-32.914h-402.286c-7.314 0-18.286 3.657-21.943 10.971l-219.429 248.686 219.429 219.429c7.314 7.314 14.629 7.314 21.943 7.314h398.629c18.286 0 32.914-14.629 32.914-32.914v-420.571zM742.4 597.943c-14.629 14.629-36.571 14.629-51.2 0l-91.429-91.429-91.429 91.429c-14.629 14.629-36.571 14.629-51.2 0s-14.629-36.571 0-51.2l91.429-91.429-91.429-91.429c-14.629-14.629-14.629-36.571 0-51.2 7.314-7.314 18.286-10.971 25.6-10.971s18.286 3.657 25.6 10.971l91.429 91.429 91.429-91.429c7.314-7.314 18.286-10.971 25.6-10.971s18.286 3.657 25.6 10.971c14.629 14.629 14.629 36.571 0 51.2l-91.429 91.429 91.429 91.429c14.629 14.629 14.629 36.571 0 51.2z" />
<glyph unicode="&#xe91e;" glyph-name="close-2" d="M512 927.086c-263.314 0-479.086-215.771-479.086-479.086s215.771-479.086 479.086-479.086 479.086 215.771 479.086 479.086-215.771 479.086-479.086 479.086zM512 42.057c-223.086 0-405.943 182.857-405.943 405.943s182.857 405.943 405.943 405.943 405.943-182.857 405.943-405.943-182.857-405.943-405.943-405.943zM738.743 674.743c-14.629 14.629-36.571 14.629-51.2 0l-175.543-175.543-175.543 175.543c-14.629 14.629-36.571 14.629-51.2 0s-14.629-36.571 0-51.2l175.543-175.543-175.543-175.543c-14.629-14.629-14.629-36.571 0-51.2 7.314-7.314 18.286-10.971 25.6-10.971s18.286 3.657 25.6 10.971l175.543 175.543 175.543-175.543c7.314-7.314 18.286-10.971 25.6-10.971s18.286 3.657 25.6 10.971c14.629 14.629 14.629 36.571 0 51.2l-175.543 175.543 175.543 175.543c14.629 14.629 14.629 36.571 0 51.2z" />
<glyph unicode="&#xe91f;" glyph-name="close" d="M563.2 448l288.914 288.914c14.629 14.629 14.629 36.571 0 51.2s-36.571 14.629-51.2 0l-288.914-288.914-288.914 292.571c-14.629 14.629-36.571 14.629-51.2 0s-14.629-36.571 0-51.2l288.914-288.914-288.914-288.914c-14.629-14.629-14.629-36.571 0-51.2 7.314-7.314 18.286-10.971 25.6-10.971s18.286 3.657 25.6 10.971l288.914 288.914 288.914-288.914c7.314-7.314 18.286-10.971 25.6-10.971s18.286 3.657 25.6 10.971c14.629 14.629 14.629 36.571 0 51.2l-288.914 285.257z" />
<glyph unicode="&#xe920;" glyph-name="cloth" d="M954.514 159.086l-153.6 314.514c-3.657 7.314-7.314 18.286-3.657 29.257l10.971 106.057 62.171-36.571c18.286-10.971 40.229-10.971 54.857 0 18.286 10.971 32.914 32.914 32.914 58.514v87.771c0 21.943-10.971 43.886-29.257 58.514l-197.486 135.314c-21.943 14.629-43.886 21.943-69.486 21.943h-18.286c-25.6 0-51.2-18.286-54.857-47.543v-21.943c0-62.171-14.629-95.086-76.8-95.086-76.8 3.657-84.114 43.886-84.114 95.086v21.943c-7.314 25.6-29.257 47.543-54.857 47.543h-18.286c-25.6 3.657-47.543-7.314-69.486-21.943l-197.486-135.314c-18.286-10.971-29.257-32.914-29.257-58.514v-87.771c0-25.6 10.971-47.543 32.914-58.514 18.286-10.971 40.229-10.971 54.857 0l62.171 36.571 18.286-106.057c0-10.971 0-21.943-3.657-29.257l-153.6-314.514c-18.286-40.229-7.314-87.771 25.6-113.371 54.857-40.229 175.543-87.771 416.914-87.771s362.057 47.543 416.914 87.771c32.914 25.6 43.886 73.143 25.6 113.371zM877.714 104.229c-40.229-29.257-138.971-73.143-373.029-73.143s-336.457 47.543-373.029 76.8c-3.657 3.657-7.314 14.629-3.657 21.943l153.6 314.514c10.971 21.943 14.629 47.543 10.971 73.143l-21.943 128c-3.657 21.943-14.629 40.229-32.914 47.543-7.314 7.314-14.629 7.314-21.943 7.314-10.971 0-18.286-3.657-29.257-7.314l-62.171-36.571v62.171l193.829 131.657c7.314 7.314 18.286 10.971 29.257 10.971h3.657c3.657-106.057 54.857-160.914 153.6-164.571 65.829 0 146.286 29.257 149.943 164.571h3.657c10.971 0 18.286-3.657 29.257-10.971l193.829-131.657v-65.829l-58.514 36.571c-14.629 7.314-32.914 7.314-51.2 0s-29.257-25.6-32.914-47.543l-21.943-128c-3.657-25.6 0-51.2 10.971-73.143l153.6-314.514c3.657-7.314 0-18.286-3.657-21.943zM618.057 473.6s-25.6-14.629-102.4-14.629c-87.771 0-117.029 10.971-120.686 10.971-14.629 10.971-36.571 7.314-47.543-7.314-14.629-14.629-10.971-36.571 3.657-51.2 21.943-18.286 80.457-29.257 164.571-29.257 102.4 0 135.314 18.286 146.286 25.6 14.629 10.971 18.286 36.571 7.314 51.2-14.629 25.6-32.914 29.257-51.2 14.629z" />
<glyph unicode="&#xe921;" glyph-name="coin" d="M512 927.086c-263.314 0-479.086-215.771-479.086-479.086s215.771-479.086 479.086-479.086 479.086 215.771 479.086 479.086-215.771 479.086-479.086 479.086zM512 42.057c-223.086 0-405.943 182.857-405.943 405.943s182.857 405.943 405.943 405.943 405.943-182.857 405.943-405.943-182.857-405.943-405.943-405.943zM515.657 495.543c-69.486 18.286-98.743 32.914-98.743 69.486 0 43.886 47.543 54.857 84.114 54.857 47.543 0 58.514-25.6 62.171-29.257 7.314-18.286 29.257-29.257 47.543-21.943s29.257 29.257 21.943 47.543c-7.314 25.6-36.571 62.171-95.086 73.143v51.2c0 21.943-14.629 36.571-36.571 36.571s-36.571-14.629-36.571-36.571v-51.2c-73.143-10.971-117.029-58.514-117.029-124.343 0-95.086 87.771-120.686 153.6-138.971 73.143-21.943 106.057-36.571 106.057-80.457 0-29.257-47.543-65.829-106.057-65.829-36.571 0-120.686 7.314-120.686 80.457 0 21.943-14.629 36.571-36.571 36.571s-36.571-14.629-36.571-36.571c0-84.114 62.171-138.971 157.257-149.943v-40.229c0-21.943 14.629-36.571 36.571-36.571s36.571 14.629 36.571 36.571v40.229c80.457 14.629 142.629 69.486 142.629 135.314-3.657 102.4-95.086 131.657-164.571 149.943z" />
<glyph unicode="&#xe922;" glyph-name="copy" d="M885.029 956.343h-464.457c-73.143 0-135.314-58.514-135.314-135.314v-175.543h-149.943c-73.143 0-135.314-58.514-135.314-135.314v-435.2c0-73.143 58.514-135.314 135.314-135.314h435.2c73.143 0 135.314 58.514 135.314 135.314v149.943h179.2c73.143 0 135.314 58.514 135.314 135.314v460.8c0 73.143-62.171 135.314-135.314 135.314zM632.686 74.971c0-32.914-25.6-62.171-62.171-62.171h-435.2c-32.914 0-62.171 25.6-62.171 62.171v435.2c0 32.914 25.6 62.171 62.171 62.171h435.2c32.914 0 62.171-25.6 62.171-62.171v-435.2zM947.2 356.571c0-32.914-25.6-62.171-62.171-62.171h-179.2v215.771c0 73.143-58.514 135.314-135.314 135.314h-208.457v175.543c0 32.914 25.6 62.171 62.171 62.171h464.457c32.914 0 62.171-25.6 62.171-62.171v-464.457z" />
<glyph unicode="&#xe923;" glyph-name="currency" d="M266.971 510.171c-69.486 18.286-98.743 32.914-98.743 69.486 0 43.886 47.543 54.857 84.114 54.857 47.543 0 58.514-25.6 62.171-29.257 7.314-18.286 29.257-29.257 47.543-21.943s29.257 29.257 21.943 47.543c-7.314 25.6-36.571 62.171-95.086 73.143v51.2c0 21.943-14.629 36.571-36.571 36.571s-36.571-14.629-36.571-36.571v-51.2c-73.143-10.971-117.029-58.514-117.029-124.343 0-95.086 87.771-120.686 153.6-138.971 73.143-21.943 106.057-36.571 106.057-80.457 0-29.257-47.543-65.829-106.057-65.829-36.571 0-120.686 7.314-120.686 80.457 0 21.943-14.629 36.571-36.571 36.571s-36.571-14.629-36.571-36.571c0-84.114 62.171-138.971 157.257-149.943v-40.229c0-21.943 14.629-36.571 36.571-36.571s36.571 14.629 36.571 36.571v40.229c80.457 14.629 142.629 69.486 142.629 135.314-7.314 102.4-98.743 128-164.571 149.943zM998.4 298.057c-14.629 14.629-36.571 14.629-51.2 3.657-29.257-25.6-62.171-40.229-95.086-40.229-54.857 0-98.743 32.914-131.657 80.457h58.514c21.943 0 36.571 14.629 36.571 36.571s-14.629 36.571-36.571 36.571h-87.771c-3.657 18.286-7.314 36.571-7.314 54.857v7.314h95.086c21.943 0 36.571 14.629 36.571 36.571s-14.629 36.571-36.571 36.571h-80.457c25.6 73.143 84.114 124.343 149.943 124.343 29.257 0 54.857-10.971 80.457-25.6 18.286-10.971 40.229-7.314 51.2 7.314 10.971 18.286 7.314 40.229-7.314 51.2-36.571 25.6-80.457 40.229-124.343 40.229-106.057 0-197.486-84.114-226.743-197.486h-80.457c-21.943 0-36.571-14.629-36.571-36.571s14.629-36.571 36.571-36.571h73.143v-7.314c0-18.286 0-36.571 3.657-54.857h-76.8c-21.943 0-36.571-14.629-36.571-36.571s14.629-36.571 36.571-36.571h98.743c40.229-91.429 120.686-153.6 212.114-153.6 54.857 0 102.4 21.943 146.286 58.514 10.971 10.971 14.629 36.571 0 51.2z" />
<glyph unicode="&#xe924;" glyph-name="delete" d="M585.143 195.657c21.943 0 36.571 14.629 36.571 36.571v310.857c0 21.943-14.629 36.571-36.571 36.571s-36.571-14.629-36.571-36.571v-310.857c0-21.943 14.629-36.571 36.571-36.571zM438.857 195.657c21.943 0 36.571 14.629 36.571 36.571v310.857c0 21.943-14.629 36.571-36.571 36.571s-36.571-14.629-36.571-36.571v-310.857c0-21.943 14.629-36.571 36.571-36.571zM859.429 736.914h-694.857c-21.943 0-36.571-14.629-36.571-36.571s14.629-36.571 36.571-36.571h65.829v-581.486c0-21.943 14.629-36.571 36.571-36.571h486.4c21.943 0 36.571 14.629 36.571 36.571v581.486h69.486c21.943 0 36.571 14.629 36.571 36.571s-14.629 36.571-36.571 36.571zM716.8 122.514h-413.257v541.257h413.257v-541.257zM376.686 773.486h270.629c21.943 0 36.571 14.629 36.571 36.571s-14.629 36.571-36.571 36.571h-270.629c-21.943 0-36.571-14.629-36.571-36.571s14.629-36.571 36.571-36.571z" />
<glyph unicode="&#xe925;" glyph-name="donwload-1" d="M921.6 363.886c-21.943 0-36.571-14.629-36.571-36.571v-234.057c0-29.257-25.6-54.857-54.857-54.857h-629.029c-29.257 0-54.857 25.6-54.857 54.857v234.057c0 21.943-14.629 36.571-36.571 36.571s-36.571-14.629-36.571-36.571v-234.057c0-69.486 58.514-128 128-128h625.371c69.486 0 128 58.514 128 128v234.057c3.657 18.286-14.629 36.571-32.914 36.571zM457.143 188.343c14.629-14.629 36.571-25.6 58.514-25.6s43.886 7.314 58.514 25.6l226.743 226.743c14.629 14.629 14.629 36.571 0 51.2s-36.571 14.629-51.2 0l-193.829-193.829v614.4c0 21.943-14.629 36.571-36.571 36.571s-36.571-14.629-36.571-36.571v-618.057l-193.829 193.829c-14.629 14.629-36.571 14.629-51.2 0s-14.629-36.571 0-51.2l219.429-223.086z" />
<glyph unicode="&#xe926;" glyph-name="download-1" d="M460.8 173.714c14.629-14.629 32.914-18.286 51.2-18.286s36.571 7.314 51.2 21.943l197.486 197.486c14.629 14.629 14.629 36.571 0 51.2s-36.571 14.629-51.2 0l-157.257-160.914v570.514c0 21.943-14.629 36.571-36.571 36.571s-36.571-14.629-36.571-36.571v-570.514l-160.914 160.914c-14.629 14.629-36.571 14.629-51.2 0s-14.629-36.571 0-51.2l193.829-201.143zM742.4 96.914h-460.8c-21.943 0-36.571-14.629-36.571-36.571s14.629-36.571 36.571-36.571h464.457c21.943 0 36.571 14.629 36.571 36.571s-18.286 36.571-40.229 36.571z" />
<glyph unicode="&#xe927;" glyph-name="edit-pencil" d="M943.543 652.8l-223.086 226.743c-7.314 7.314-18.286 10.971-25.6 10.971-10.971 0-18.286-3.657-25.6-10.971l-588.8-577.829c-7.314-7.314-10.971-14.629-10.971-25.6v-234.057c0-21.943 14.629-36.571 36.571-36.571h215.771c10.971 0 18.286 3.657 25.6 10.971l596.114 585.143c10.971 14.629 10.971 40.229 0 51.2zM307.2 74.971h-164.571v182.857l65.829 65.829c0-3.657 3.657-3.657 3.657-7.314l117.029-117.029c7.314-7.314 18.286-10.971 25.6-10.971 10.971 0 18.286 3.657 25.6 10.971 14.629 14.629 14.629 36.571 0 51.2l-117.029 120.686c0 3.657-3.657 3.657-7.314 3.657l435.2 427.886 171.886-171.886-555.886-555.886z" />
<glyph unicode="&#xe928;" glyph-name="ellipse" d="M585.143 448c0-40.396-32.747-73.143-73.143-73.143s-73.143 32.747-73.143 73.143c0 40.396 32.747 73.143 73.143 73.143s73.143-32.747 73.143-73.143zM585.143 704c0-40.396-32.747-73.143-73.143-73.143s-73.143 32.747-73.143 73.143c0 40.396 32.747 73.143 73.143 73.143s73.143-32.747 73.143-73.143zM585.143 192c0-40.396-32.747-73.143-73.143-73.143s-73.143 32.747-73.143 73.143c0 40.396 32.747 73.143 73.143 73.143s73.143-32.747 73.143-73.143z" />
<glyph unicode="&#xe929;" glyph-name="envelop" d="M866.743 791.771h-713.143c-54.857 0-102.4-47.543-102.4-102.4v-482.743c0-54.857 47.543-102.4 102.4-102.4h713.143c58.514 0 102.4 47.543 102.4 106.057v479.086c3.657 54.857-43.886 102.4-102.4 102.4zM852.114 718.629l-307.2-252.343c-21.943-18.286-43.886-18.286-65.829 0l-303.543 252.343h676.571zM866.743 177.371h-713.143c-14.629 0-29.257 14.629-29.257 29.257v457.143l307.2-256c25.6-18.286 51.2-29.257 80.457-29.257 25.6 0 54.857 10.971 80.457 29.257l307.2 252.343v-449.829c0-18.286-14.629-32.914-32.914-32.914z" />
<glyph unicode="&#xe92a;" glyph-name="exchange" d="M826.514 733.257l-171.886 171.886c-14.629 14.629-36.571 14.629-51.2 0s-14.629-36.571 0-51.2l135.314-135.314h-486.4c-21.943 0-36.571-14.629-36.571-36.571s14.629-36.571 36.571-36.571h479.086l-128-128c-14.629-14.629-14.629-36.571 0-51.2 7.314-7.314 18.286-10.971 25.6-10.971s18.286 3.657 25.6 10.971l171.886 171.886c10.971 10.971 18.286 29.257 18.286 47.543s-7.314 36.571-18.286 47.543zM771.657 243.2h-482.743l135.314 135.314c14.629 14.629 14.629 36.571 0 51.2s-36.571 14.629-51.2 0l-171.886-171.886c-10.971-10.971-18.286-29.257-18.286-47.543s7.314-36.571 18.286-47.543l171.886-171.886c7.314-7.314 18.286-10.971 25.6-10.971s18.286 3.657 25.6 10.971c14.629 14.629 14.629 36.571 0 51.2l-128 128h479.086c21.943 0 36.571 14.629 36.571 36.571s-18.286 36.571-40.229 36.571z" />
<glyph unicode="&#xe92b;" glyph-name="exchnage" d="M735.086 265.143c-51.2-69.486-138.971-109.714-226.743-109.714-138.971 0-259.657 98.743-285.257 234.057l65.829-65.829c7.314-7.314 14.629-10.971 25.6-10.971s18.286 3.657 25.6 10.971c14.629 14.629 14.629 36.571 0 51.2l-124.343 120.686c-7.314 7.314-14.629 10.971-25.6 10.971s-18.286-3.657-25.6-10.971l-113.371-117.029c-14.629-14.629-14.629-36.571 0-51.2s36.571-14.629 51.2 0l47.543 47.543c32.914-168.229 182.857-292.571 358.4-292.571 113.371 0 219.429 51.2 285.257 138.971 10.971 14.629 7.314 40.229-7.314 51.2s-40.229 7.314-51.2-7.314zM972.8 546.743c-14.629 14.629-36.571 14.629-51.2 0l-51.2-51.2c-21.943 179.2-175.543 318.171-362.057 318.171-131.657 0-256-73.143-318.171-182.857-7.314-18.286-3.657-40.229 14.629-51.2 18.286-7.314 40.229-3.657 51.2 14.629 47.543 87.771 149.943 146.286 252.343 146.286 146.286 0 270.629-109.714 288.914-252.343l-62.171 62.171c-14.629 14.629-36.571 14.629-51.2 0s-14.629-36.571 0-51.2l120.686-120.686c7.314-7.314 14.629-10.971 25.6-10.971s18.286 3.657 25.6 10.971l117.029 117.029c14.629 14.629 14.629 36.571 0 51.2z" />
<glyph unicode="&#xe92c;" glyph-name="expend-collaps" d="M855.771 78.629h-416.914c-21.943 0-36.571 14.629-36.571 36.571s14.629 36.571 36.571 36.571h416.914c32.914 0 62.171 25.6 62.171 62.171v585.143c0 32.914-25.6 62.171-62.171 62.171h-585.143c-32.914 0-62.171-25.6-62.171-62.171v-420.571c0-21.943-14.629-36.571-36.571-36.571s-36.571 14.629-36.571 36.571v420.571c0 73.143 58.514 135.314 135.314 135.314h585.143c73.143 0 135.314-58.514 135.314-135.314v-585.143c-3.657-73.143-62.171-135.314-135.314-135.314zM80.457-23.771c7.314-3.657 14.629-3.657 21.943 0h281.6c21.943 0 36.571 14.629 36.571 36.571s-14.629 36.571-36.571 36.571h-208.457l128 138.971 391.314 416.914c14.629 14.629 14.629 36.571 0 51.2s-36.571 14.629-51.2 0l-512-552.229v204.8c0 21.943-14.629 36.571-36.571 36.571s-36.571-14.629-36.571-36.571v-296.229c-3.657-14.629 7.314-29.257 21.943-36.571z" />
<glyph unicode="&#xe92d;" glyph-name="expend" d="M855.771 78.629h-416.914c-21.943 0-36.571 14.629-36.571 36.571s14.629 36.571 36.571 36.571h416.914c32.914 0 62.171 25.6 62.171 62.171v585.143c0 32.914-25.6 62.171-62.171 62.171h-585.143c-32.914 0-62.171-25.6-62.171-62.171v-420.571c0-21.943-14.629-36.571-36.571-36.571s-36.571 14.629-36.571 36.571v420.571c0 73.143 58.514 135.314 135.314 135.314h585.143c73.143 0 135.314-58.514 135.314-135.314v-585.143c-3.657-73.143-62.171-135.314-135.314-135.314zM680.229 652.8c-7.314 3.657-14.629 3.657-21.943 0h-281.6c-21.943 0-36.571-14.629-36.571-36.571s14.629-36.571 36.571-36.571h208.457l-128-138.971-391.314-416.914c-14.629-14.629-14.629-36.571 0-51.2s36.571-14.629 51.2 0l512 552.229v-204.8c0-21.943 14.629-36.571 36.571-36.571s36.571 14.629 36.571 36.571v299.886c0 14.629-7.314 25.6-21.943 32.914z" />
<glyph unicode="&#xe92e;" glyph-name="eye-hide" d="M318.171 832c-10.971 18.286-32.914 21.943-51.2 10.971s-21.943-32.914-10.971-51.2l51.2-84.114c-117.029-58.514-208.457-149.943-252.343-201.143-29.257-32.914-29.257-76.8 0-109.714 65.829-76.8 245.029-252.343 457.143-252.343 40.229 0 84.114 7.314 128 21.943l62.171-102.4c7.314-10.971 18.286-18.286 32.914-18.286 7.314 0 14.629 0 18.286 3.657 18.286 10.971 21.943 32.914 10.971 51.2l-446.171 731.429zM438.857 488.229l69.486-117.029c-43.886 3.657-76.8 36.571-76.8 80.457 0 14.629 3.657 29.257 7.314 36.571zM508.343 217.6c-182.857 0-343.771 160.914-402.286 230.4-3.657 3.657-3.657 10.971 0 14.629 43.886 47.543 128 135.314 237.714 186.514l54.857-87.771c-25.6-25.6-40.229-62.171-40.229-102.4 0-84.114 69.486-157.257 157.257-157.257 10.971 0 25.6 3.657 36.571 3.657l47.543-76.8c-32.914-7.314-62.171-10.971-91.429-10.971zM965.486 510.171c-65.829 73.143-237.714 248.686-446.171 252.343-18.286 0-36.571-14.629-36.571-36.571s14.629-36.571 36.571-36.571c179.2-7.314 332.8-160.914 391.314-226.743 3.657-3.657 3.657-10.971 0-14.629-25.6-29.257-73.143-80.457-138.971-128-14.629-10.971-18.286-36.571-7.314-51.2 7.314-10.971 18.286-14.629 29.257-14.629 7.314 0 14.629 3.657 21.943 7.314 73.143 51.2 128 109.714 153.6 138.971s25.6 76.8-3.657 109.714z" />
<glyph unicode="&#xe92f;" glyph-name="eye-visible" d="M972.8 502.857c-51.2 62.171-234.057 256-460.8 256s-409.6-193.829-460.8-256c-25.6-32.914-25.6-76.8 0-109.714 149.943-164.571 307.2-252.343 457.143-252.343 226.743 0 409.6 193.829 460.8 256 29.257 29.257 29.257 73.143 3.657 106.057zM914.286 440.686c-43.886-54.857-208.457-226.743-402.286-226.743-128 0-270.629 80.457-402.286 226.743-3.657 3.657-3.657 10.971 0 14.629 43.886 54.857 208.457 226.743 402.286 226.743s358.4-175.543 402.286-226.743c3.657-3.657 3.657-10.971 0-14.629zM519.314 608.914c-87.771 0-157.257-69.486-157.257-157.257s69.486-157.257 157.257-157.257 157.257 69.486 157.257 157.257c0 84.114-69.486 157.257-157.257 157.257zM519.314 367.543c-47.543 0-84.114 36.571-84.114 84.114s36.571 84.114 84.114 84.114 84.114-36.571 84.114-84.114-36.571-84.114-84.114-84.114z" />
<glyph unicode="&#xe930;" glyph-name="facebook" d="M435.2 411.429h-109.714v128h109.714v102.4c0 54.857 14.629 95.086 43.886 124.343s69.486 43.886 120.686 43.886c40.229 0 73.143-3.657 98.743-7.314v-113.371h-69.486c-25.6 0-43.886-7.314-51.2-18.286s-10.971-25.6-10.971-43.886v-87.771h120.686l-18.286-128h-102.4v-321.829h-131.657v321.829z" />
<glyph unicode="&#xe931;" glyph-name="file" d="M625.371 912.457h-321.829c-76.8 0-135.314-62.171-135.314-135.314v-658.286c0-73.143 62.171-135.314 135.314-135.314h420.571c73.143 0 135.314 62.171 135.314 135.314v559.543c-3.657 113.371-91.429 234.057-234.057 234.057zM778.971 711.314h-120.686c-7.314 0-14.629 7.314-14.629 14.629v113.371c80.457-10.971 124.343-73.143 135.314-128zM782.629 118.857c0-36.571-25.6-62.171-62.171-62.171h-416.914c-36.571 0-62.171 25.6-62.171 62.171v658.286c0 36.571 25.6 62.171 62.171 62.171h270.629v-113.371c0-47.543 40.229-87.771 87.771-87.771h124.343v-519.314zM698.514 309.029h-373.029c-21.943 0-36.571-14.629-36.571-36.571s14.629-36.571 36.571-36.571h369.371c21.943 0 36.571 14.629 36.571 36.571s-14.629 36.571-32.914 36.571zM288.914 455.314c0-21.943 14.629-36.571 36.571-36.571h369.371c21.943 0 36.571 14.629 36.571 36.571s-14.629 36.571-36.571 36.571h-369.371c-18.286 0-36.571-14.629-36.571-36.571zM325.486 601.6h138.971c21.943 0 36.571 14.629 36.571 36.571s-14.629 36.571-36.571 36.571h-138.971c-21.943 0-36.571-14.629-36.571-36.571s18.286-36.571 36.571-36.571z" />
<glyph unicode="&#xe932;" glyph-name="filter" d="M577.829-5.486c-18.286 0-36.571 3.657-51.2 14.629l-131.657 84.114c-29.257 14.629-43.886 51.2-43.886 80.457v325.486c0 7.314 0 10.971-3.657 14.629l-208.457 230.4c-29.257 25.6-36.571 65.829-21.943 98.743s47.543 58.514 84.114 58.514h618.057c36.571 0 73.143-21.943 87.771-54.857s7.314-73.143-14.629-98.743l-212.114-230.4c-3.657-3.657-3.657-7.314-3.657-14.629v-409.6c0-32.914-18.286-65.829-47.543-80.457-18.286-14.629-32.914-18.286-51.2-18.286zM201.143 828.343c-7.314 0-10.971-7.314-14.629-10.971-3.657-7.314-3.657-14.629 3.657-21.943l212.114-230.4c14.629-14.629 25.6-36.571 25.6-65.829v-325.486c0-7.314 3.657-14.629 7.314-14.629l135.314-84.114c7.314-7.314 14.629-3.657 21.943 0s10.971 10.971 10.971 18.286v405.943c0 25.6 7.314 51.2 25.6 65.829l212.114 230.4c0 7.314 0 14.629-3.657 18.286 0 3.657-7.314 10.971-21.943 10.971h-614.4z" />
<glyph unicode="&#xe933;" glyph-name="flag" d="M841.143 842.971l-3.657 3.657-7.314 3.657c-14.629 3.657-32.914 3.657-113.371-10.971h-7.314c-117.029-32.914-241.371-36.571-358.4-10.971l-135.314 21.943v43.886c0 21.943-14.629 36.571-36.571 36.571s-36.571-14.629-36.571-36.571v-892.343c0-21.943 14.629-36.571 36.571-36.571s36.571 14.629 36.571 36.571v373.029l128-25.6c54.857-10.971 109.714-14.629 160.914-14.629 73.143 0 146.286 7.314 215.771 25.6 14.629 3.657 157.257 47.543 157.257 117.029v292.571c3.657 18.286-3.657 47.543-36.571 73.143zM808.229 484.571c-14.629-14.629-73.143-40.229-106.057-51.2-109.714-29.257-230.4-32.914-343.771-10.971l-142.629 25.6v329.143l120.686-25.6c131.657-25.6 266.971-21.943 391.314 10.971h7.314c40.229 10.971 58.514 14.629 69.486 14.629 3.657-3.657 3.657-3.657 3.657-7.314v-285.257z" />
<glyph unicode="&#xe934;" glyph-name="folder" d="M826.514 714.971h-277.943c-14.629 65.829-73.143 113.371-142.629 113.371h-208.457c-80.457 0-146.286-65.829-146.286-146.286v-468.114c0-80.457 65.829-146.286 146.286-146.286h625.371c80.457 0 146.286 65.829 146.286 146.286v354.743c3.657 80.457-62.171 146.286-142.629 146.286zM197.486 755.2h208.457c29.257 0 54.857-14.629 65.829-40.229h-274.286c-25.6 0-51.2-7.314-73.143-18.286 10.971 32.914 36.571 58.514 73.143 58.514zM899.657 213.943c0-36.571-36.571-73.143-73.143-73.143h-629.029c-40.229 0-73.143 32.914-73.143 73.143v354.743c0 40.229 32.914 73.143 73.143 73.143h625.371c40.229 0 73.143-32.914 73.143-73.143v-354.743z" />
<glyph unicode="&#xe935;" glyph-name="food" d="M972.8 137.143h-21.943c-7.314 204.8-157.257 376.686-358.4 413.257 3.657 10.971 7.314 21.943 7.314 36.571 0 51.2-40.229 91.429-91.429 91.429s-91.429-40.229-91.429-91.429c0-14.629 3.657-25.6 7.314-36.571-193.829-40.229-343.771-208.457-351.086-413.257h-21.943c-21.943 0-36.571-14.629-36.571-36.571s14.629-36.571 36.571-36.571h925.257c21.943 0 36.571 14.629 36.571 36.571s-18.286 36.571-40.229 36.571zM515.657 605.257c10.971 0 18.286-7.314 18.286-18.286s-7.314-18.286-18.286-18.286-18.286 7.314-18.286 18.286 7.314 18.286 18.286 18.286zM515.657 484.571c138.971 0 259.657-80.457 321.829-193.829h-522.971c-21.943 0-36.571-14.629-36.571-36.571s14.629-36.571 36.571-36.571h552.229c7.314-25.6 10.971-51.2 10.971-80.457h-724.114c7.314 193.829 168.229 347.429 362.057 347.429zM709.486 660.114c0-3.657 0-3.657-3.657-7.314l-25.6-29.257c-14.629-14.629-10.971-40.229 3.657-51.2 7.314-7.314 14.629-7.314 21.943-7.314 10.971 0 21.943 3.657 29.257 14.629l25.6 29.257c14.629 18.286 21.943 40.229 18.286 62.171s-14.629 40.229-29.257 54.857c-7.314 7.314-7.314 10.971-3.657 14.629l25.6 32.914c10.971 14.629 7.314 40.229-7.314 51.2s-40.229 7.314-51.2-7.314l-25.6-32.914c-25.6-36.571-21.943-84.114 14.629-113.371 3.657-3.657 3.657-7.314 7.314-10.971z" />
<glyph unicode="&#xe936;" glyph-name="furniture" d="M943.543 488.229v285.257c0 51.2-43.886 95.086-95.086 95.086h-665.6c-51.2 0-95.086-43.886-95.086-95.086v-285.257c-36.571-10.971-65.829-43.886-65.829-84.114v-292.571c0-47.543 40.229-84.114 84.114-84.114h117.029c32.914 0 58.514 18.286 73.143 43.886h427.886c14.629-25.6 43.886-43.886 73.143-43.886h117.029c47.543 0 84.114 40.229 84.114 84.114v292.571c10.971 43.886-18.286 76.8-54.857 84.114zM182.857 795.429h665.6c10.971 0 21.943-10.971 21.943-21.943v-281.6h-65.829c-47.543 0-84.114-40.229-84.114-84.114v-43.886h-405.943v43.886c0 47.543-40.229 84.114-84.114 84.114h-65.829v281.6c-3.657 10.971 7.314 21.943 18.286 21.943zM314.514 287.086h405.943v-142.629h-405.943v142.629zM241.371 115.2c0-7.314-7.314-10.971-10.971-10.971h-117.029c-7.314 0-10.971 7.314-10.971 10.971v292.571c0 7.314 7.314 10.971 10.971 10.971h117.029c7.314 0 10.971-7.314 10.971-10.971v-292.571zM936.229 115.2c0-7.314-7.314-10.971-10.971-10.971h-117.029c-7.314 0-10.971 7.314-10.971 10.971v292.571c0 7.314 7.314 10.971 10.971 10.971h117.029c7.314 0 10.971-7.314 10.971-10.971v-292.571z" />
<glyph unicode="&#xe937;" glyph-name="gift" d="M833.829 711.314h-21.943c10.971 18.286 14.629 36.571 14.629 58.514v10.971c0 69.486-51.2 120.686-120.686 120.686-80.457 0-146.286-40.229-190.171-98.743-40.229 58.514-109.714 98.743-186.514 98.743-69.486 0-124.343-51.2-124.343-120.686v-10.971c0-21.943 7.314-40.229 14.629-58.514h-29.257c-73.143 0-135.314-62.171-135.314-135.314v-446.171c0-73.143 62.171-135.314 135.314-135.314h640c73.143 0 135.314 62.171 135.314 135.314v446.171c3.657 73.143-58.514 135.314-131.657 135.314zM896 576v-58.514h-347.429v120.686h285.257c32.914 0 62.171-25.6 62.171-62.171zM702.171 828.343c29.257 0 47.543-18.286 47.543-47.543v-10.971c0-32.914-25.6-58.514-58.514-58.514h-138.971c18.286 69.486 76.8 117.029 149.943 117.029zM277.943 769.829v10.971c0 29.257 18.286 47.543 47.543 47.543 73.143 0 131.657-47.543 149.943-117.029h-138.971c-29.257 0-58.514 25.6-58.514 58.514zM190.171 638.171h285.257v-120.686h-347.429v58.514c0 36.571 29.257 62.171 62.171 62.171zM128 129.829v314.514h347.429v-376.686h-285.257c-32.914 0-62.171 25.6-62.171 62.171zM833.829 67.657h-285.257v376.686h343.771v-314.514c3.657-36.571-25.6-62.171-58.514-62.171z" />
<glyph unicode="&#xe938;" glyph-name="globe" d="M980.114 583.314c-21.943 69.486-58.514 131.657-102.4 186.514v3.657s-3.657 0-3.657 3.657c-124.343 135.314-318.171 197.486-504.686 142.629-73.143-21.943-135.314-58.514-186.514-106.057-135.314-124.343-197.486-318.171-142.629-504.686 18.286-62.171 47.543-113.371 84.114-160.914v-3.657c91.429-117.029 237.714-186.514 387.657-186.514 47.543 0 95.086 7.314 138.971 21.943 65.829 18.286 124.343 51.2 175.543 91.429 142.629 113.371 212.114 314.514 153.6 512zM800.914 140.8l-117.029 135.314c102.4 80.457 201.143 120.686 241.371 135.314-3.657-102.4-51.2-197.486-124.343-270.629zM925.257 488.229c-10.971-3.657-142.629-43.886-288.914-157.257l-95.086 109.714 299.886 252.343c29.257-40.229 51.2-84.114 65.829-131.657 10.971-25.6 14.629-47.543 18.286-73.143zM625.371 842.971c62.171-18.286 120.686-51.2 168.229-95.086l-299.886-248.686-73.143 87.771c73.143 62.171 146.286 146.286 201.143 248.686 3.657 3.657 3.657 3.657 3.657 7.314zM387.657 842.971c40.229 10.971 80.457 18.286 120.686 18.286 14.629 0 29.257 0 43.886-3.657-51.2-91.429-113.371-164.571-179.2-219.429l-117.029 135.314c36.571 32.914 84.114 54.857 131.657 69.486zM201.143 725.943l113.371-131.657c-98.743-73.143-190.171-109.714-226.743-124.343 7.314 95.086 47.543 186.514 113.371 256zM91.429 393.143c7.314 3.657 135.314 40.229 274.286 146.286l76.8-87.771-285.257-237.714c-21.943 32.914-36.571 69.486-51.2 109.714-7.314 21.943-14.629 43.886-14.629 69.486zM201.143 155.429l288.914 241.371 95.086-109.714c-69.486-62.171-135.314-138.971-186.514-237.714 0-3.657-3.657-7.314-3.657-10.971-76.8 21.943-142.629 62.171-193.829 117.029zM629.029 38.4c-54.857-14.629-109.714-21.943-164.571-14.629 47.543 84.114 106.057 153.6 164.571 208.457l117.029-135.314c-36.571-25.6-76.8-47.543-117.029-58.514z" />
<glyph unicode="&#xe939;" glyph-name="google-plus" d="M603.429 444.343c0-47.543-10.971-91.429-29.257-131.657-21.943-36.571-47.543-65.829-87.771-87.771s-80.457-32.914-128-32.914c-47.543 0-87.771 10.971-128 32.914s-69.486 54.857-95.086 95.086c-21.943 40.229-32.914 80.457-32.914 128s10.971 87.771 32.914 128 54.857 69.486 95.086 95.086 80.457 32.914 128 32.914c65.829 0 124.343-21.943 171.886-65.829l-69.486-65.829c-25.6 25.6-62.171 40.229-102.4 40.229-29.257 0-54.857-7.314-80.457-21.943s-43.886-32.914-58.514-58.514c-14.629-25.6-21.943-51.2-21.943-80.457s7.314-54.857 21.943-80.457c14.629-25.6 32.914-43.886 58.514-58.514s51.2-21.943 80.457-21.943c32.914 0 58.514 7.314 80.457 18.286 18.286 10.971 32.914 25.6 43.886 43.886 10.971 14.629 14.629 29.257 18.286 43.886h-146.286v87.771h241.371c7.314-14.629 7.314-29.257 7.314-40.229zM848.457 550.4h-73.143v-73.143h-73.143v-73.143h73.143v-73.143h73.143v73.143h73.143v73.143h-73.143v73.143z" />
<glyph unicode="&#xe93a;" glyph-name="gps" d="M585.143 448c0-40.396-32.747-73.143-73.143-73.143s-73.143 32.747-73.143 73.143c0 40.396 32.747 73.143 73.143 73.143s73.143-32.747 73.143-73.143zM914.286 484.571h-76.8c-18.286 153.6-138.971 274.286-288.914 288.914v76.8c0 21.943-14.629 36.571-36.571 36.571s-36.571-14.629-36.571-36.571v-76.8c-153.6-14.629-274.286-135.314-292.571-288.914h-73.143c-21.943 0-36.571-14.629-36.571-36.571s14.629-36.571 36.571-36.571h73.143c18.286-153.6 138.971-274.286 288.914-288.914v-76.8c0-21.943 14.629-36.571 36.571-36.571s36.571 14.629 36.571 36.571v76.8c73.143 7.314 142.629 40.229 197.486 95.086s84.114 120.686 95.086 197.486h76.8c21.943 0 36.571 14.629 36.571 36.571 0 18.286-14.629 32.914-36.571 32.914zM548.571 195.657v32.914c0 21.943-14.629 36.571-36.571 36.571s-36.571-14.629-36.571-36.571v-32.914c-113.371 14.629-201.143 102.4-219.429 215.771h36.571c21.943 0 36.571 14.629 36.571 36.571s-14.629 36.571-36.571 36.571h-36.571c18.286 113.371 106.057 201.143 219.429 215.771v-32.914c0-21.943 14.629-36.571 36.571-36.571s36.571 14.629 36.571 36.571v32.914c54.857-7.314 106.057-32.914 142.629-73.143 40.229-40.229 65.829-91.429 73.143-142.629h-32.914c-21.943 0-36.571-14.629-36.571-36.571s14.629-36.571 36.571-36.571h32.914c-18.286-113.371-106.057-201.143-215.771-215.771z" />
<glyph unicode="&#xe93b;" glyph-name="graph-1" d="M186.514 513.829c-21.943 0-36.571-14.629-36.571-36.571v-471.771c0-21.943 14.629-36.571 36.571-36.571s36.571 14.629 36.571 36.571v471.771c0 21.943-14.629 36.571-36.571 36.571zM526.629 927.086c-21.943 0-36.571-14.629-36.571-36.571v-885.029c0-21.943 14.629-36.571 36.571-36.571s36.571 14.629 36.571 36.571v885.029c0 21.943-14.629 36.571-36.571 36.571zM837.486 250.514c-21.943 0-36.571-14.629-36.571-36.571v-208.457c0-21.943 14.629-36.571 36.571-36.571s36.571 14.629 36.571 36.571v208.457c0 21.943-14.629 36.571-36.571 36.571z" />
<glyph unicode="&#xe93c;" glyph-name="graph" d="M522.971 440.686c7.314-7.314 14.629-10.971 25.6-10.971h7.314l409.6 80.457c10.971 3.657 18.286 7.314 21.943 14.629s7.314 18.286 3.657 29.257c-40.229 179.2-179.2 325.486-362.057 369.371-10.971 3.657-21.943 0-29.257-3.657-7.314-7.314-14.629-14.629-14.629-25.6l-73.143-424.229c-3.657-10.971 3.657-21.943 10.971-29.257zM650.971 842.971c124.343-43.886 219.429-142.629 259.657-266.971l-318.171-62.171 58.514 329.143zM965.486 484.571c-21.943 0-36.571-14.629-36.571-36.571 0-230.4-186.514-416.914-416.914-416.914s-416.914 186.514-416.914 416.914 186.514 416.914 416.914 416.914c21.943 0 36.571 14.629 36.571 36.571s-14.629 36.571-36.571 36.571c-270.629 0-490.057-219.429-490.057-490.057s219.429-490.057 490.057-490.057 490.057 219.429 490.057 490.057c0 21.943-14.629 36.571-36.571 36.571z" />
<glyph unicode="&#xe93d;" glyph-name="heart-fill" d="M512 16.457h-7.314c-40.229 7.314-292.571 109.714-424.229 303.543-73.143 106.057-95.086 219.429-65.829 336.457 29.257 124.343 109.714 204.8 219.429 219.429 106.057 14.629 215.771-32.914 274.286-113.371 58.514 76.8 168.229 124.343 274.286 113.371 113.371-14.629 193.829-95.086 219.429-219.429 29.257-117.029 3.657-230.4-65.829-336.457-131.657-193.829-384-299.886-420.571-303.543h-3.657z" />
<glyph unicode="&#xe93e;" glyph-name="heart" d="M512 16.457h-7.314c-40.229 7.314-292.571 109.714-424.229 303.543-73.143 106.057-95.086 219.429-65.829 336.457 29.257 124.343 109.714 204.8 219.429 219.429 106.057 14.629 215.771-32.914 274.286-113.371 58.514 76.8 168.229 124.343 274.286 113.371 113.371-14.629 193.829-95.086 219.429-219.429 29.257-117.029 3.657-230.4-65.829-336.457-131.657-193.829-384-299.886-420.571-303.543h-3.657zM274.286 806.4h-25.6c-84.114-10.971-138.971-69.486-160.914-164.571s-3.657-186.514 51.2-274.286c106.057-164.571 325.486-263.314 373.029-277.943 47.543 14.629 263.314 113.371 369.371 277.943 54.857 87.771 73.143 179.2 51.2 270.629-21.943 95.086-76.8 149.943-157.257 160.914-87.771 10.971-182.857-36.571-219.429-106.057 0 0 0-3.657-3.657-3.657-10.971-18.286-29.257-25.6-51.2-25.6-18.286 3.657-32.914 14.629-36.571 29.257-32.914 69.486-113.371 113.371-190.171 113.371z" />
<glyph unicode="&#xe93f;" glyph-name="hold-cart" d="M438.857 137.143c0-40.396-32.747-73.143-73.143-73.143s-73.143 32.747-73.143 73.143c0 40.396 32.747 73.143 73.143 73.143s73.143-32.747 73.143-73.143zM841.143 137.143c0-40.396-32.747-73.143-73.143-73.143s-73.143 32.747-73.143 73.143c0 40.396 32.747 73.143 73.143 73.143s73.143-32.747 73.143-73.143zM387.657 246.857c-51.2 0-95.086 36.571-106.057 87.771l-62.171 307.2v3.657l-29.257 153.6h-117.029c-21.943 0-36.571 14.629-36.571 36.571s14.629 36.571 36.571 36.571h146.286c18.286 0 32.914-10.971 36.571-29.257l29.257-153.6h592.457c10.971 0 21.943-3.657 29.257-14.629s7.314-21.943 7.314-32.914l-58.514-307.2c-10.971-51.2-54.857-87.771-109.714-87.771h-358.4zM299.886 612.571l51.2-263.314c3.657-18.286 18.286-29.257 36.571-29.257h354.743c18.286 0 32.914 10.971 36.571 29.257l51.2 263.314h-530.286zM512 356.571c-21.943 0-36.571 14.629-36.571 36.571v146.286c0 21.943 14.629 36.571 36.571 36.571s36.571-14.629 36.571-36.571v-146.286c0-21.943-18.286-36.571-36.571-36.571zM512 557.714v0zM621.714 356.571c-21.943 0-36.571 14.629-36.571 36.571v146.286c0 21.943 14.629 36.571 36.571 36.571s36.571-14.629 36.571-36.571v-146.286c0-21.943-18.286-36.571-36.571-36.571zM621.714 557.714v0z" />
<glyph unicode="&#xe940;" glyph-name="home" d="M917.943 623.543l-332.8 248.686c-10.971 18.286-32.914 29.257-54.857 32.914-29.257 3.657-62.171-3.657-91.429-25.6l-332.8-252.343c-32.914-25.6-51.2-62.171-51.2-98.743v-416.914c0-65.829 58.514-124.343 124.343-124.343h157.257c36.571 0 69.486 32.914 69.486 69.486v234.057c0 25.6 25.6 51.2 51.2 51.2h109.714c25.6 0 51.2-25.6 51.2-51.2v-234.057c0-36.571 32.914-69.486 69.486-69.486h157.257c65.829 0 124.343 58.514 124.343 124.343v413.257c0 43.886-18.286 80.457-51.2 98.743zM896 111.543c0-25.6-25.6-51.2-51.2-51.2h-153.6v230.4c0 65.829-58.514 124.343-124.343 124.343h-109.714c-65.829 0-124.343-58.514-124.343-124.343v-230.4h-153.6c-25.6 0-51.2 25.6-51.2 51.2v416.914c0 14.629 7.314 29.257 21.943 40.229l336.457 252.343c10.971 7.314 21.943 10.971 32.914 10.971 7.314 0 7.314-3.657 7.314-3.657 3.657-3.657 3.657-7.314 7.314-10.971l336.457-252.343c10.971-7.314 21.943-21.943 21.943-40.229v-413.257zM680.229 586.971h-321.829c-21.943 0-36.571-14.629-36.571-36.571s14.629-36.571 36.571-36.571h321.829c21.943 0 36.571 14.629 36.571 36.571s-14.629 36.571-36.571 36.571z" />
<glyph unicode="&#xe941;" glyph-name="info" d="M512 927.086c-263.314 0-479.086-215.771-479.086-479.086s215.771-479.086 479.086-479.086 479.086 215.771 479.086 479.086-215.771 479.086-479.086 479.086zM512 42.057c-223.086 0-405.943 182.857-405.943 405.943s182.857 405.943 405.943 405.943 405.943-182.857 405.943-405.943-182.857-405.943-405.943-405.943zM512 539.429c-21.943 0-36.571-14.629-36.571-36.571v-252.343c0-21.943 14.629-36.571 36.571-36.571s36.571 14.629 36.571 36.571v252.343c0 21.943-14.629 36.571-36.571 36.571zM512 682.057c-21.943 0-36.571-14.629-36.571-36.571v-7.314c0-21.943 14.629-36.571 36.571-36.571s36.571 14.629 36.571 36.571v7.314c0 21.943-14.629 36.571-36.571 36.571z" />
<glyph unicode="&#xe942;" glyph-name="instagram" d="M877.714 601.6v-153.6c0-73.143 0-120.686-3.657-153.6 0-32.914-7.314-58.514-14.629-80.457-10.971-29.257-25.6-51.2-43.886-73.143-21.943-21.943-43.886-36.571-73.143-43.886-21.943-7.314-51.2-10.971-80.457-14.629-32.914 0-84.114-3.657-153.6-3.657s-120.686 0-153.6 3.657c-32.914 0-58.514 7.314-80.457 14.629-25.6 7.314-51.2 21.943-73.143 43.886s-36.571 43.886-43.886 73.143c-3.657 21.943-10.971 47.543-10.971 80.457s-3.657 84.114-3.657 153.6 3.657 120.686 3.657 153.6 7.314 58.514 14.629 80.457c10.971 25.6 25.6 51.2 43.886 73.143s43.886 36.571 73.143 43.886c21.943 7.314 47.543 14.629 80.457 14.629s84.114 3.657 153.6 3.657 120.686 0 153.6-3.657c32.914 0 58.514-7.314 80.457-14.629 25.6-10.971 51.2-25.6 73.143-43.886s36.571-43.886 43.886-73.143c7.314-21.943 14.629-51.2 14.629-80.457zM800.914 232.229c7.314 18.286 10.971 47.543 14.629 87.771v256c-3.657 40.229-7.314 69.486-14.629 87.771-14.629 32.914-36.571 58.514-69.486 69.486-18.286 7.314-47.543 10.971-87.771 14.629h-256c-43.886 0-73.143-7.314-91.429-10.971-32.914-14.629-58.514-36.571-69.486-69.486-7.314-18.286-14.629-51.2-14.629-91.429v-256c3.657-40.229 7.314-69.486 14.629-87.771 14.629-32.914 36.571-58.514 69.486-69.486 18.286-7.314 47.543-10.971 87.771-14.629h256c40.229 3.657 69.486 7.314 87.771 14.629 36.571 10.971 58.514 36.571 73.143 69.486zM512 638.171c32.914 0 65.829-7.314 95.086-25.6s51.2-40.229 69.486-69.486c18.286-29.257 25.6-62.171 25.6-95.086s-7.314-65.829-25.6-95.086c-18.286-29.257-40.229-51.2-69.486-69.486s-62.171-25.6-95.086-25.6-65.829 7.314-95.086 25.6c-29.257 18.286-51.2 40.229-69.486 69.486s-25.6 62.171-25.6 95.086 7.314 65.829 25.6 95.086c18.286 29.257 40.229 51.2 69.486 69.486 29.257 14.629 62.171 25.6 95.086 25.6zM512 323.657c32.914 0 62.171 10.971 87.771 36.571s36.571 54.857 36.571 87.771-10.971 62.171-36.571 87.771-54.857 36.571-87.771 36.571-62.171-10.971-87.771-36.571-36.571-54.857-36.571-87.771 10.971-62.171 36.571-87.771 54.857-36.571 87.771-36.571zM753.371 645.486c0 10.971-3.657 21.943-14.629 32.914-7.314 7.314-18.286 14.629-32.914 14.629s-21.943-3.657-32.914-14.629-14.629-18.286-14.629-32.914c0-10.971 3.657-21.943 14.629-32.914s18.286-14.629 32.914-14.629 21.943 3.657 29.257 14.629 18.286 21.943 18.286 32.914z" />
<glyph unicode="&#xe943;" glyph-name="language-1" d="M318.171 751.543c-3.657 14.629-18.286 21.943-32.914 21.943s-29.257-7.314-32.914-21.943l-215.771-588.8c-7.314-18.286 3.657-40.229 21.943-47.543s40.229 3.657 47.543 21.943l58.514 160.914h164.571c21.943 0 36.571 14.629 36.571 36.571s-14.629 36.571-36.571 36.571h-138.971l95.086 259.657 179.2-493.714c3.657-14.629 18.286-25.6 32.914-25.6 3.657 0 7.314 0 10.971 3.657 18.286 7.314 29.257 29.257 21.943 47.543l-212.114 588.8zM950.857 696.686h-135.314v80.457c0 21.943-14.629 36.571-36.571 36.571s-36.571-14.629-36.571-36.571v-80.457h-197.486c-21.943 0-36.571-14.629-36.571-36.571s14.629-36.571 36.571-36.571h296.229c-7.314-117.029-54.857-208.457-106.057-277.943-62.171 84.114-76.8 175.543-76.8 175.543-3.657 18.286-21.943 32.914-40.229 29.257s-32.914-21.943-29.257-40.229c0-7.314 21.943-124.343 98.743-223.086-65.829-69.486-128-102.4-128-102.4-18.286-10.971-25.6-32.914-14.629-51.2 7.314-10.971 18.286-18.286 32.914-18.286 7.314 0 10.971 0 18.286 3.657s73.143 40.229 142.629 113.371c32.914-32.914 76.8-58.514 128-76.8 3.657 0 7.314-3.657 10.971-3.657 14.629 0 29.257 10.971 32.914 25.6 7.314 18.286-3.657 40.229-21.943 47.543-40.229 14.629-73.143 36.571-102.4 62.171 65.829 80.457 124.343 193.829 131.657 336.457h36.571c21.943 0 36.571 14.629 36.571 36.571s-18.286 36.571-40.229 36.571z" />
<glyph unicode="&#xe944;" glyph-name="language" d="M512 923.429c-263.314 0-475.429-212.114-475.429-475.429s212.114-475.429 475.429-475.429 475.429 212.114 475.429 475.429-212.114 475.429-475.429 475.429zM910.629 484.571l-131.657 3.657c-18.286 135.314-87.771 263.314-164.571 347.429 160.914-40.229 281.6-179.2 296.229-351.086zM548.571 799.086c73.143-73.143 135.314-190.171 157.257-310.857l-157.257 3.657v307.2zM475.429 418.743v-329.143c-106.057 87.771-160.914 193.829-160.914 321.829v10.971l160.914-3.657zM321.829 495.543c21.943 117.029 84.114 230.4 153.6 303.543v-307.2l-153.6 3.657zM548.571 89.6v329.143l160.914-3.657v-3.657c0-124.343-54.857-234.057-160.914-321.829zM226.743 733.257c51.2 51.2 113.371 87.771 182.857 106.057-76.8-87.771-142.629-208.457-164.571-340.114l-131.657 3.657c10.971 84.114 51.2 168.229 113.371 230.4zM109.714 426.057l128-3.657v-14.629c0-98.743 32.914-230.4 157.257-347.429-157.257 51.2-274.286 193.829-285.257 365.714zM629.029 64c124.343 117.029 157.257 252.343 157.257 347.429v3.657l128-3.657c-18.286-164.571-131.657-303.543-285.257-347.429z" />
<glyph unicode="&#xe945;" glyph-name="laptop" d="M917.943 832h-811.886c-47.543 0-87.771-40.229-87.771-87.771v-482.743c0-47.543 40.229-87.771 87.771-87.771h811.886c47.543 0 87.771 40.229 87.771 87.771v482.743c0 47.543-40.229 87.771-87.771 87.771zM932.571 261.486c0-7.314-7.314-14.629-14.629-14.629h-811.886c-7.314 0-14.629 7.314-14.629 14.629v482.743c0 7.314 7.314 14.629 14.629 14.629h811.886c7.314 0 14.629-7.314 14.629-14.629v-482.743zM969.143 137.143h-914.286c-21.943 0-36.571-14.629-36.571-36.571s14.629-36.571 36.571-36.571h914.286c21.943 0 36.571 14.629 36.571 36.571s-18.286 36.571-36.571 36.571z" />
<glyph unicode="&#xe946;" glyph-name="limit" d="M512 586.971c-21.943 0-36.571-14.629-36.571-36.571v-252.343c0-21.943 14.629-36.571 36.571-36.571s36.571 14.629 36.571 36.571v252.343c0 18.286-18.286 36.571-36.571 36.571zM512 239.543c-21.943 0-36.571-14.629-36.571-36.571v-10.971c0-21.943 14.629-36.571 36.571-36.571s36.571 14.629 36.571 36.571v10.971c0 18.286-18.286 36.571-36.571 36.571zM1005.714 155.429l-424.229 672.914c-14.629 25.6-40.229 40.229-69.486 40.229s-54.857-14.629-69.486-40.229l-424.229-669.257c-14.629-25.6-14.629-58.514 0-84.114s40.229-40.229 69.486-40.229l848.457-3.657c29.257 0 58.514 18.286 73.143 43.886 10.971 21.943 10.971 54.857-3.657 80.457zM943.543 107.886c0-3.657-3.657-3.657-7.314-3.657h-848.457c-3.657 0-3.657 3.657-3.657 3.657s-3.657 7.314 0 10.971l420.571 669.257c3.657 7.314 10.971 7.314 14.629 0l424.229-672.914c3.657-3.657 0-7.314 0-7.314z" />
<glyph unicode="&#xe947;" glyph-name="linked-in" d="M241.371 693.029c-14.629 14.629-21.943 29.257-21.943 51.2s7.314 36.571 21.943 51.2c14.629 10.971 29.257 18.286 47.543 18.286s36.571-7.314 51.2-21.943c14.629-14.629 21.943-29.257 21.943-47.543s-7.314-36.571-21.943-51.2c-14.629-14.629-29.257-21.943-51.2-21.943s-32.914 7.314-47.543 21.943zM226.743 228.571v391.314h120.686v-391.314h-120.686zM683.886 228.571v190.171c0 32.914-3.657 54.857-7.314 69.486-10.971 21.943-29.257 36.571-54.857 36.571-29.257 0-47.543-10.971-58.514-32.914-7.314-14.629-14.629-40.229-14.629-69.486v-193.829h-120.686v391.314h117.029v-54.857c7.314 18.286 21.943 32.914 40.229 43.886 21.943 14.629 47.543 21.943 73.143 21.943 54.857 0 95.086-18.286 117.029-54.857 18.286-29.257 25.6-73.143 25.6-131.657v-215.771h-117.029z" />
<glyph unicode="&#xe948;" glyph-name="lipstick" d="M658.286 437.029v468.114c0 21.943-14.629 36.571-36.571 36.571-142.629 0-256-113.371-256-256v-248.686c-21.943-10.971-36.571-36.571-36.571-62.171v-237.714c0-102.4 80.457-182.857 182.857-182.857s182.857 80.457 182.857 182.857v237.714c0 25.6-14.629 47.543-36.571 62.171zM438.857 685.714c0 87.771 62.171 160.914 146.286 179.2v-416.914h-146.286v237.714zM621.714 137.143c0-62.171-47.543-109.714-109.714-109.714s-109.714 47.543-109.714 109.714v237.714h219.429v-237.714z" />
<glyph unicode="&#xe949;" glyph-name="location" d="M512 941.714c-215.771 0-387.657-175.543-387.657-391.314 0-113.371 98.743-296.229 303.543-552.229 21.943-25.6 51.2-40.229 84.114-40.229s65.829 14.629 84.114 40.229c204.8 256 303.543 438.857 303.543 552.229 0 219.429-168.229 391.314-387.657 391.314zM541.257 42.057c-10.971-10.971-21.943-14.629-29.257-14.629s-18.286 0-29.257 14.629c-237.714 299.886-285.257 442.514-285.257 508.343 0 175.543 142.629 318.171 318.171 318.171s314.514-138.971 314.514-318.171c-3.657-65.829-51.2-208.457-288.914-508.343zM512 678.4c-58.514 0-106.057-47.543-106.057-106.057s47.543-106.057 106.057-106.057 106.057 47.543 106.057 106.057-51.2 106.057-106.057 106.057z" />
<glyph unicode="&#xe94a;" glyph-name="lock-1" d="M789.943 605.257s3.657 0 0 0v54.857c0 149.943-128 277.943-277.943 277.943s-277.943-128-277.943-277.943v-54.857c-80.457-3.657-142.629-65.829-142.629-146.286v-354.743c0-80.457 65.829-146.286 146.286-146.286h544.914c80.457 0 146.286 65.829 146.286 146.286v354.743c0 76.8-62.171 142.629-138.971 146.286zM307.2 660.114c0 109.714 95.086 204.8 204.8 204.8s204.8-95.086 204.8-204.8v-54.857h-409.6v54.857zM855.771 104.229c0-40.229-32.914-73.143-73.143-73.143h-541.257c-40.229 0-73.143 32.914-73.143 73.143v354.743c0 40.229 32.914 73.143 73.143 73.143h544.914c36.571 0 73.143-36.571 73.143-73.143v-354.743zM515.657 217.6c-36.571 0-65.829-29.257-65.829-65.829s29.257-65.829 65.829-65.829 65.829 29.257 65.829 65.829c-3.657 36.571-29.257 65.829-65.829 65.829z" />
<glyph unicode="&#xe94b;" glyph-name="lock-2" d="M797.257 605.257h-486.4v54.857c0 109.714 95.086 204.8 204.8 204.8 87.771 0 164.571-58.514 193.829-138.971 0-3.657 3.657-7.314 3.657-7.314 18.286-36.571 80.457-14.629 62.171 29.257-36.571 109.714-142.629 190.171-263.314 190.171-149.943 0-277.943-128-277.943-277.943v-54.857c-80.457-3.657-142.629-65.829-142.629-146.286v-354.743c0-80.457 65.829-146.286 146.286-146.286h544.914c80.457 0 146.286 65.829 146.286 146.286v354.743c3.657 76.8-58.514 138.971-131.657 146.286zM859.429 104.229c0-40.229-32.914-73.143-73.143-73.143h-544.914c-40.229 0-73.143 32.914-73.143 73.143v354.743c0 40.229 32.914 73.143 73.143 73.143h544.914c36.571 0 73.143-36.571 73.143-73.143v-354.743z" />
<glyph unicode="&#xe94c;" glyph-name="map" d="M896 762.514l-186.514 47.543c-36.571 7.314-76.8 7.314-117.029 0l-179.2-47.543c-29.257-7.314-54.857-7.314-80.457 0l-153.6 40.229c-29.257 7.314-58.514 0-84.114-14.629-21.943-18.286-36.571-40.229-36.571-69.486v-501.029c0-36.571 25.6-69.486 69.486-84.114l186.514-47.543c18.286-3.657 36.571-7.314 58.514-7.314 18.286 0 40.229 3.657 58.514 7.314l179.2 47.543c29.257 7.314 54.857 7.314 80.457 0l153.6-40.229c29.257-7.314 62.171-3.657 84.114 14.629s36.571 40.229 36.571 69.486v504.686c0 32.914-25.6 73.143-69.486 80.457zM149.943 202.971c-10.971 3.657-14.629 10.971-14.629 14.629v501.029c0 3.657 3.657 7.314 7.314 10.971 0 0 3.657 3.657 10.971 3.657h7.314l153.6-40.229c7.314 0 10.971-3.657 18.286-3.657v-530.286h-3.657l-179.2 43.886zM592.457 206.629l-179.2-47.543h-7.314v526.629c7.314 0 14.629 3.657 25.6 3.657l179.2 47.543c3.657 3.657 7.314 3.657 10.971 3.657v-530.286c-7.314 0-18.286-3.657-29.257-3.657zM892.343 177.371c0-3.657-3.657-7.314-7.314-10.971-7.314-3.657-14.629-3.657-21.943-3.657l-153.6 40.229c-3.657 0-7.314 0-10.971 3.657v530.286l182.857-47.543h3.657c7.314 0 7.314-7.314 7.314-7.314v-504.686z" />
<glyph unicode="&#xe94d;" glyph-name="message-1" d="M866.743 824.686h-709.486c-54.857 0-102.4-47.543-102.4-102.4v-548.571c0-40.229 21.943-73.143 54.857-91.429 14.629-7.314 29.257-10.971 47.543-10.971 21.943 0 43.886 7.314 62.171 21.943l80.457 62.171 3.657 3.657c3.657 3.657 7.314 3.657 14.629 3.657h548.571c54.857 0 95.086 40.229 102.4 102.4v457.143c0 54.857-47.543 102.4-102.4 102.4zM866.743 235.886h-548.571c-25.6 0-47.543-7.314-65.829-21.943l-76.8-62.171c-10.971-7.314-21.943-7.314-32.914-3.657-3.657 3.657-14.629 10.971-14.629 25.6v548.571c0 14.629 14.629 29.257 29.257 29.257h709.486c14.629 0 29.257-14.629 29.257-29.257v-453.486c0-18.286-10.971-32.914-29.257-32.914z" />
<glyph unicode="&#xe94e;" glyph-name="message" d="M863.086 49.371c-14.629 0-29.257 7.314-40.229 14.629l-98.743 91.429c-7.314 7.314-14.629 10.971-25.6 10.971h-486.4c-62.171 0-113.371 51.2-113.371 113.371v380.343c0 62.171 51.2 113.371 113.371 113.371h596.114c62.171 0 113.371-51.2 113.371-113.371v-548.571c0-25.6-14.629-47.543-36.571-54.857-7.314-3.657-14.629-7.314-21.943-7.314zM212.114 700.343c-21.943 0-40.229-18.286-40.229-40.229v-380.343c0-21.943 18.286-40.229 40.229-40.229h486.4c29.257 0 54.857-10.971 76.8-29.257l73.143-69.486v519.314c0 21.943-18.286 40.229-40.229 40.229h-596.114zM746.057 579.657h-449.829c-18.286 0-32.914-14.629-32.914-32.914v-7.314c0-18.286 14.629-32.914 32.914-32.914h449.829c18.286 0 32.914 14.629 32.914 32.914v7.314c0 14.629-14.629 32.914-32.914 32.914zM508.343 418.743h-212.114c-18.286 0-32.914-14.629-32.914-32.914v-7.314c0-18.286 14.629-32.914 32.914-32.914h212.114c18.286 0 32.914 14.629 32.914 32.914v7.314c0 18.286-14.629 32.914-32.914 32.914z" />
<glyph unicode="&#xe94f;" glyph-name="minus" d="M892.343 411.429h-760.686c-21.943 0-36.571 14.629-36.571 36.571s14.629 36.571 36.571 36.571h764.343c21.943 0 36.571-14.629 36.571-36.571-3.657-21.943-18.286-36.571-40.229-36.571z" />
<glyph unicode="&#xe950;" glyph-name="mobile" d="M771.657 941.714h-519.314c-47.543 0-87.771-40.229-87.771-87.771v-811.886c0-47.543 40.229-87.771 87.771-87.771h519.314c47.543 0 87.771 40.229 87.771 87.771v811.886c0 47.543-40.229 87.771-87.771 87.771zM786.286 42.057c0-7.314-7.314-14.629-14.629-14.629h-519.314c-7.314 0-14.629 7.314-14.629 14.629v811.886c0 7.314 7.314 14.629 14.629 14.629h519.314c7.314 0 14.629-7.314 14.629-14.629v-811.886zM548.571 832h-73.143c-21.943 0-36.571-14.629-36.571-36.571s14.629-36.571 36.571-36.571h73.143c21.943 0 36.571 14.629 36.571 36.571s-18.286 36.571-36.571 36.571zM566.857 118.857c0-30.297-24.56-54.857-54.857-54.857s-54.857 24.56-54.857 54.857c0 30.297 24.56 54.857 54.857 54.857s54.857-24.56 54.857-54.857z" />
<glyph unicode="&#xe951;" glyph-name="more" d="M585.143 448c0-40.396-32.747-73.143-73.143-73.143s-73.143 32.747-73.143 73.143c0 40.396 32.747 73.143 73.143 73.143s73.143-32.747 73.143-73.143zM841.143 448c0-40.396-32.747-73.143-73.143-73.143s-73.143 32.747-73.143 73.143c0 40.396 32.747 73.143 73.143 73.143s73.143-32.747 73.143-73.143zM329.143 448c0-40.396-32.747-73.143-73.143-73.143s-73.143 32.747-73.143 73.143c0 40.396 32.747 73.143 73.143 73.143s73.143-32.747 73.143-73.143z" />
<glyph unicode="&#xe952;" glyph-name="neckless" d="M969.143 817.371c-21.943 0-36.571-14.629-36.571-36.571 0-54.857-10.971-106.057-29.257-157.257-65.829-160.914-219.429-263.314-391.314-263.314s-325.486 106.057-391.314 266.971c-18.286 51.2-29.257 102.4-29.257 157.257 0 21.943-14.629 36.571-36.571 36.571s-36.571-14.629-36.571-36.571c0-62.171 10.971-124.343 36.571-182.857 43.886-106.057 117.029-190.171 212.114-245.029-10.971-10.971-18.286-29.257-18.286-47.543 0-40.229 32.914-73.143 73.143-73.143s69.486 29.257 73.143 69.486c7.314 0 14.629-3.657 21.943-3.657-14.629-21.943-25.6-51.2-25.6-80.457 0-80.457 65.829-142.629 142.629-142.629s142.629 65.829 142.629 142.629c0 32.914-10.971 65.829-32.914 91.429l32.914 10.971v-10.971c0-40.229 32.914-73.143 73.143-73.143s73.143 32.914 73.143 73.143c0 29.257-14.629 51.2-40.229 65.829 80.457 54.857 146.286 131.657 182.857 226.743 21.943 58.514 36.571 120.686 36.571 182.857 3.657 14.629-14.629 29.257-32.914 29.257zM537.6 148.114c-40.229 0-69.486 32.914-69.486 69.486s32.914 69.486 69.486 69.486 69.486-32.914 69.486-69.486-29.257-69.486-69.486-69.486z" />
<glyph unicode="&#xe953;" glyph-name="next" d="M281.6 711.314c-14.629 14.629-36.571 14.629-51.2 0s-14.629-36.571 0-51.2l208.457-212.114-208.457-208.457c-7.314-7.314-10.971-18.286-10.971-29.257s3.657-18.286 10.971-25.6c14.629-14.629 36.571-14.629 51.2 0l208.457 208.457c29.257 29.257 29.257 80.457 0 106.057l-208.457 212.114zM782.629 502.857l-208.457 208.457c-14.629 14.629-36.571 14.629-51.2 0s-14.629-36.571 0-51.2l208.457-212.114-208.457-208.457c-7.314-7.314-10.971-18.286-10.971-25.6s3.657-18.286 10.971-25.6c14.629-14.629 36.571-14.629 51.2 0l208.457 208.457c29.257 25.6 29.257 76.8 0 106.057z" />
<glyph unicode="&#xe954;" glyph-name="notification" d="M925.257 294.4l-10.971 29.257c-14.629 47.543-29.257 102.4-29.257 157.257 0 146.286-40.229 256-120.686 332.8-102.4 98.743-234.057 102.4-252.343 102.4s-142.629 3.657-245.029-91.429c-87.771-84.114-131.657-212.114-131.657-384 0-29.257-7.314-62.171-14.629-95.086l-18.286-54.857c-21.943-62.171 3.657-131.657 54.857-164.571 18.286-14.629 43.886-21.943 69.486-21.943h142.629c7.314-73.143 69.486-128 146.286-128s135.314 54.857 146.286 128h138.971c25.6 0 51.2 10.971 69.486 25.6 51.2 40.229 73.143 106.057 54.857 164.571zM515.657 53.029c-36.571 0-62.171 21.943-69.486 54.857h138.971c-7.314-29.257-32.914-54.857-69.486-54.857zM830.171 195.657c-3.657 0-3.657-3.657-7.314-3.657-3.657-3.657-10.971-7.314-21.943-7.314h-574.171c-14.629 0-21.943 3.657-29.257 7.314l-3.657 3.657c-21.943 10.971-32.914 47.543-21.943 76.8l18.286 54.857c14.629 40.229 21.943 80.457 21.943 117.029 0 149.943 36.571 259.657 109.714 325.486 73.143 69.486 160.914 73.143 186.514 73.143h10.971s117.029 3.657 201.143-80.457c62.171-62.171 95.086-157.257 95.086-281.6 0-65.829 18.286-128 32.914-179.2l7.314-25.6c7.314-32.914-3.657-65.829-25.6-80.457z" />
<glyph unicode="&#xe955;" glyph-name="num-pad" d="M219.429 612.571c-69.486 0-128 58.514-128 128s58.514 128 128 128 128-58.514 128-128-58.514-128-128-128zM219.429 795.429c-29.257 0-54.857-25.6-54.857-54.857s25.6-54.857 54.857-54.857 54.857 25.6 54.857 54.857-25.6 54.857-54.857 54.857zM219.429 320c-69.486 0-128 58.514-128 128s58.514 128 128 128 128-58.514 128-128-58.514-128-128-128zM219.429 502.857c-29.257 0-54.857-25.6-54.857-54.857s25.6-54.857 54.857-54.857 54.857 25.6 54.857 54.857-25.6 54.857-54.857 54.857zM219.429 27.429c-69.486 0-128 58.514-128 128s58.514 128 128 128 128-58.514 128-128-58.514-128-128-128zM219.429 210.286c-29.257 0-54.857-25.6-54.857-54.857s25.6-54.857 54.857-54.857 54.857 25.6 54.857 54.857-25.6 54.857-54.857 54.857zM512 612.571c-69.486 0-128 58.514-128 128s58.514 128 128 128 128-58.514 128-128c0-32.914-14.629-65.829-36.571-91.429-25.6-21.943-58.514-36.571-91.429-36.571zM512 795.429c-29.257 0-54.857-25.6-54.857-54.857s25.6-54.857 54.857-54.857 54.857 25.6 54.857 54.857-25.6 54.857-54.857 54.857zM512 320c-69.486 0-128 58.514-128 128s58.514 128 128 128 128-58.514 128-128-58.514-128-128-128zM512 502.857c-29.257 0-54.857-25.6-54.857-54.857s25.6-54.857 54.857-54.857 54.857 25.6 54.857 54.857-25.6 54.857-54.857 54.857zM512 27.429c-69.486 0-128 58.514-128 128s58.514 128 128 128 128-58.514 128-128-58.514-128-128-128zM512 210.286c-29.257 0-54.857-25.6-54.857-54.857s25.6-54.857 54.857-54.857 54.857 25.6 54.857 54.857-25.6 54.857-54.857 54.857zM804.571 612.571c-69.486 0-128 58.514-128 128s58.514 128 128 128 128-58.514 128-128c0-32.914-14.629-65.829-36.571-91.429-25.6-21.943-58.514-36.571-91.429-36.571zM804.571 795.429c-29.257 0-54.857-25.6-54.857-54.857s25.6-54.857 54.857-54.857 54.857 25.6 54.857 54.857-25.6 54.857-54.857 54.857zM804.571 320c-69.486 0-128 58.514-128 128s58.514 128 128 128 128-58.514 128-128-58.514-128-128-128zM804.571 502.857c-29.257 0-54.857-25.6-54.857-54.857s25.6-54.857 54.857-54.857 54.857 25.6 54.857 54.857-25.6 54.857-54.857 54.857zM804.571 27.429c-69.486 0-128 58.514-128 128s58.514 128 128 128 128-58.514 128-128-58.514-128-128-128zM804.571 210.286c-29.257 0-54.857-25.6-54.857-54.857s25.6-54.857 54.857-54.857 54.857 25.6 54.857 54.857-25.6 54.857-54.857 54.857z" />
<glyph unicode="&#xe956;" glyph-name="percentage" d="M903.314 839.314c-14.629 14.629-36.571 14.629-51.2 0l-731.429-731.429c-14.629-14.629-14.629-36.571 0-51.2 7.314-7.314 14.629-10.971 25.6-10.971s18.286 3.657 25.6 10.971l731.429 731.429c14.629 14.629 14.629 36.571 0 51.2zM277.943 543.086c80.457 0 142.629 62.171 142.629 142.629s-62.171 142.629-142.629 142.629-142.629-62.171-142.629-142.629 62.171-142.629 142.629-142.629zM277.943 755.2c36.571 0 69.486-32.914 69.486-69.486s-32.914-69.486-69.486-69.486-69.486 32.914-69.486 69.486 32.914 69.486 69.486 69.486zM746.057 356.571c-80.457 0-142.629-65.829-142.629-142.629s62.171-142.629 142.629-142.629 142.629 65.829 142.629 142.629-62.171 142.629-142.629 142.629zM746.057 144.457c-36.571 0-69.486 32.914-69.486 69.486s32.914 69.486 69.486 69.486 69.486-32.914 69.486-69.486-32.914-69.486-69.486-69.486z" />
<glyph unicode="&#xe957;" glyph-name="phone" d="M914.286 228.571c0 3.657-3.657 3.657-3.657 7.314l-131.657 138.971c-7.314 7.314-14.629 14.629-25.6 14.629-25.6 3.657-51.2-10.971-87.771-54.857-14.629-18.286-32.914-25.6-58.514-29.257-43.886-3.657-98.743 25.6-157.257 73.143-36.571 32.914-54.857 73.143-51.2 113.371 3.657 54.857 40.229 98.743 51.2 109.714 21.943 18.286 32.914 36.571 32.914 51.2 3.657 32.914-14.629 58.514-18.286 62.171 0 0 0 3.657-3.657 3.657l-106.057 109.714c-40.229 47.543-95.086 43.886-120.686 32.914 0 0-3.657 0-3.657-3.657-3.657 0-113.371-65.829-131.657-204.8-18.286-120.686 40.229-256 171.886-394.971 135.314-146.286 266.971-223.086 398.629-230.4h14.629c109.714 0 182.857 54.857 197.486 65.829 10.971 7.314 36.571 25.6 43.886 58.514 3.657 18.286 7.314 43.886-10.971 76.8zM841.143 159.086c-3.657 0-3.657-3.657-7.314-3.657-7.314-7.314-204.8-179.2-512 153.6-113.371 124.343-164.571 237.714-153.6 336.457 7.314 21.943 14.629 43.886 21.943 62.171l87.771-87.771c7.314-7.314 18.286-10.971 25.6-10.971s18.286 7.314 25.6 14.629c14.629 14.629 14.629 36.571 0 51.2l-95.086 95.086c14.629 14.629 25.6 21.943 29.257 25.6 3.657 0 21.943 3.657 36.571-14.629l106.057-106.057c0-3.657 3.657-3.657 3.657-7.314l-3.657-3.657c-29.257-21.943-76.8-87.771-80.457-164.571-3.657-62.171 21.943-120.686 76.8-168.229 73.143-65.829 146.286-98.743 212.114-95.086 7.314 0 14.629 3.657 21.943 3.657l95.086-98.743c7.314-7.314 18.286-10.971 25.6-10.971 10.971 0 18.286 3.657 25.6 10.971 14.629 14.629 14.629 36.571 0 51.2l-80.457 84.114c3.657 3.657 10.971 7.314 14.629 14.629 7.314 10.971 14.629 18.286 21.943 21.943l113.371-120.686c3.657-7.314 3.657-10.971 3.657-14.629-3.657-10.971-10.971-18.286-14.629-18.286z" />
<glyph unicode="&#xe958;" glyph-name="picture" d="M826.514 795.429h-629.029c-80.457 0-146.286-65.829-146.286-146.286v-402.286c0-80.457 65.829-146.286 146.286-146.286h625.371c80.457 0 146.286 65.829 146.286 146.286v402.286c3.657 80.457-62.171 146.286-142.629 146.286zM197.486 722.286h625.371c40.229 0 73.143-32.914 73.143-73.143v-288.914l-120.686 84.114c-14.629 7.314-29.257 7.314-43.886 0l-146.286-109.714-160.914 149.943c-14.629 10.971-32.914 14.629-47.543 3.657l-252.343-193.829v354.743c0 40.229 32.914 73.143 73.143 73.143zM826.514 173.714h-629.029c-25.6 0-47.543 14.629-62.171 36.571l259.657 201.143 160.914-149.943c14.629-10.971 32.914-14.629 47.543-3.657l149.943 113.371 142.629-98.743v-25.6c3.657-40.229-29.257-73.143-69.486-73.143zM610.743 546.743c29.257 0 54.857 25.6 54.857 54.857s-25.6 54.857-54.857 54.857-54.857-25.6-54.857-54.857 21.943-54.857 54.857-54.857zM610.743 619.886c10.971 0 18.286-7.314 18.286-18.286s-7.314-18.286-18.286-18.286-18.286 7.314-18.286 18.286 7.314 18.286 18.286 18.286z" />
<glyph unicode="&#xe959;" glyph-name="pintrest" d="M826.514 268.8c-32.914-54.857-76.8-98.743-131.657-131.657s-117.029-47.543-179.2-47.543c-36.571 0-73.143 3.657-106.057 14.629 21.943 40.229 36.571 69.486 43.886 95.086l21.943 87.771c7.314-10.971 18.286-21.943 32.914-29.257s32.914-10.971 51.2-10.971c36.571 0 65.829 10.971 95.086 29.257s51.2 47.543 65.829 80.457c14.629 32.914 25.6 69.486 25.6 113.371s-10.971 76.8-29.257 109.714c-21.943 25.6-51.2 51.2-84.114 69.486s-73.143 25.6-113.371 25.6c-51.2 0-95.086-10.971-131.657-29.257-32.914-18.286-58.514-47.543-80.457-80.457s-29.257-69.486-29.257-109.714c0-29.257 7.314-54.857 21.943-84.114s32.914-47.543 54.857-54.857c7.314-3.657 10.971 0 10.971 3.657l10.971 40.229c0 3.657 0 7.314-3.657 10.971-7.314 10.971-14.629 21.943-18.286 36.571s-7.314 29.257-7.314 47.543c0 25.6 7.314 51.2 18.286 76.8 14.629 25.6 32.914 43.886 54.857 58.514 25.6 14.629 54.857 21.943 87.771 21.943 43.886 0 80.457-14.629 109.714-40.229 29.257-29.257 43.886-62.171 43.886-106.057 0-47.543-10.971-87.771-32.914-120.686s-47.543-47.543-80.457-47.543c-18.286 0-32.914 7.314-43.886 18.286-10.971 14.629-14.629 29.257-10.971 47.543 3.657 10.971 7.314 25.6 14.629 47.543 10.971 36.571 14.629 62.171 14.629 76.8s-3.657 25.6-10.971 36.571c-7.314 10.971-18.286 14.629-32.914 14.629-18.286 0-32.914-7.314-47.543-25.6-10.971-18.286-18.286-36.571-18.286-62.171 0-21.943 3.657-40.229 10.971-54.857l-40.229-179.2c-7.314-25.6-7.314-58.514 0-102.4-69.486 25.6-124.343 69.486-168.229 131.657s-65.829 124.343-65.829 201.143c0 65.829 14.629 124.343 47.543 179.2s76.8 98.743 131.657 131.657 117.029 47.543 179.2 47.543 124.343-14.629 179.2-47.543 98.743-76.8 131.657-131.657c32.914-54.857 47.543-117.029 47.543-179.2s-10.971-124.343-40.229-179.2z" />
<glyph unicode="&#xe95a;" glyph-name="play" d="M512 45.714c-223.086 0-402.286 179.2-402.286 402.286s179.2 402.286 402.286 402.286 402.286-179.2 402.286-402.286c0-106.057-43.886-208.457-117.029-285.257s-179.2-117.029-285.257-117.029zM512 777.143c-182.857 0-329.143-146.286-329.143-329.143s146.286-329.143 329.143-329.143 329.143 146.286 329.143 329.143-146.286 329.143-329.143 329.143zM676.571 480.914l-230.4 153.6h-7.314c-3.657 0-7.314 3.657-10.971 3.657s-7.314 0-10.971-3.657h-3.657c-3.657 0-7.314-3.657-10.971-3.657l-7.314-7.314v-3.657c0-3.657-3.657-3.657-3.657-7.314v-303.543c0-3.657 0-29.257 7.314-36.571 10.971-18.286 32.914-21.943 47.543-10.971l230.4 153.6c54.857 32.914 7.314 58.514 0 65.829zM464.457 535.771l128-87.771-128-87.771v175.543z" />
<glyph unicode="&#xe95b;" glyph-name="plus" d="M896 484.571h-347.429v343.771c0 21.943-14.629 36.571-36.571 36.571s-36.571-14.629-36.571-36.571v-343.771h-347.429c-21.943 0-36.571-14.629-36.571-36.571s14.629-36.571 36.571-36.571h347.429v-343.771c0-21.943 14.629-36.571 36.571-36.571s36.571 14.629 36.571 36.571v343.771h347.429c21.943 0 36.571 14.629 36.571 36.571 0 18.286-14.629 36.571-36.571 36.571z" />
<glyph unicode="&#xe95c;" glyph-name="pos" d="M753.371 941.714h-482.743c-87.771 0-160.914-73.143-160.914-160.914v-669.257c0-87.771 73.143-160.914 160.914-160.914h486.4c87.771 0 160.914 73.143 160.914 160.914v669.257c-3.657 87.771-76.8 160.914-164.571 160.914zM841.143 115.2c0-47.543-40.229-87.771-87.771-87.771h-482.743c-47.543 0-87.771 40.229-87.771 87.771v665.6c0 47.543 40.229 87.771 87.771 87.771h486.4c47.543 0 87.771-40.229 87.771-87.771v-665.6zM270.629 499.2h471.771c21.943 0 36.571 14.629 36.571 36.571v179.2c0 21.943-14.629 36.571-36.571 36.571h-471.771c-21.943 0-36.571-14.629-36.571-36.571v-179.2c0-18.286 18.286-36.571 36.571-36.571zM307.2 678.4h398.629v-106.057h-398.629v106.057zM438.857 773.486h146.286c21.943 0 36.571 14.629 36.571 36.571s-14.629 36.571-36.571 36.571h-146.286c-21.943 0-36.571-14.629-36.571-36.571s18.286-36.571 36.571-36.571zM310.857 444.343h-40.229c-21.943 0-36.571-14.629-36.571-36.571s14.629-36.571 36.571-36.571h40.229c21.943 0 36.571 14.629 36.571 36.571s-14.629 36.571-36.571 36.571zM987.429 835.657c-21.943 0-36.571-14.629-36.571-36.571v-464.457c0-21.943 14.629-36.571 36.571-36.571s36.571 14.629 36.571 36.571v464.457c0 18.286-14.629 36.571-36.571 36.571zM530.286 444.343h-40.229c-21.943 0-36.571-14.629-36.571-36.571s14.629-36.571 36.571-36.571h40.229c21.943 0 36.571 14.629 36.571 36.571s-14.629 36.571-36.571 36.571zM749.714 444.343h-40.229c-21.943 0-36.571-14.629-36.571-36.571s14.629-36.571 36.571-36.571h40.229c21.943 0 36.571 14.629 36.571 36.571s-14.629 36.571-36.571 36.571zM310.857 316.343h-40.229c-21.943 0-36.571-14.629-36.571-36.571s14.629-36.571 36.571-36.571h40.229c21.943 0 36.571 14.629 36.571 36.571s-14.629 36.571-36.571 36.571zM530.286 316.343h-40.229c-21.943 0-36.571-14.629-36.571-36.571s14.629-36.571 36.571-36.571h40.229c21.943 0 36.571 14.629 36.571 36.571s-14.629 36.571-36.571 36.571zM749.714 316.343h-40.229c-21.943 0-36.571-14.629-36.571-36.571s14.629-36.571 36.571-36.571h40.229c21.943 0 36.571 14.629 36.571 36.571s-14.629 36.571-36.571 36.571zM310.857 184.686h-40.229c-21.943 0-36.571-14.629-36.571-36.571s14.629-36.571 36.571-36.571h40.229c21.943 0 36.571 14.629 36.571 36.571s-14.629 36.571-36.571 36.571zM530.286 184.686h-40.229c-21.943 0-36.571-14.629-36.571-36.571s14.629-36.571 36.571-36.571h40.229c21.943 0 36.571 14.629 36.571 36.571s-14.629 36.571-36.571 36.571zM749.714 184.686h-40.229c-21.943 0-36.571-14.629-36.571-36.571s14.629-36.571 36.571-36.571h40.229c21.943 0 36.571 14.629 36.571 36.571s-14.629 36.571-36.571 36.571z" />
<glyph unicode="&#xe95d;" glyph-name="power" d="M661.943 725.943c-18.286 7.314-40.229 0-47.543-18.286s0-40.229 18.286-47.543c117.029-51.2 193.829-164.571 193.829-292.571 0-171.886-142.629-314.514-314.514-314.514s-314.514 142.629-314.514 314.514c0 117.029 65.829 230.4 171.886 281.6 18.286 10.971 25.6 32.914 14.629 47.543-10.971 18.286-32.914 25.6-47.543 14.629-128-65.829-208.457-201.143-208.457-347.429-3.657-208.457 171.886-384 384-384s387.657 175.543 387.657 387.657c0 157.257-95.086 296.229-237.714 358.4zM504.686 349.257c21.943 0 36.571 14.629 36.571 36.571v493.714c0 21.943-14.629 36.571-36.571 36.571s-36.571-14.629-36.571-36.571v-493.714c0-21.943 14.629-36.571 36.571-36.571z" />
<glyph unicode="&#xe95e;" glyph-name="previous" d="M742.4 711.314c14.629 14.629 36.571 14.629 51.2 0s14.629-36.571 0-51.2l-208.457-212.114 208.457-208.457c7.314-7.314 10.971-18.286 10.971-25.6s-3.657-18.286-10.971-25.6c-14.629-14.629-36.571-14.629-51.2 0l-208.457 208.457c-29.257 29.257-29.257 80.457 0 106.057l208.457 208.457zM241.371 502.857l208.457 208.457c14.629 14.629 36.571 14.629 51.2 0s14.629-36.571 0-51.2l-208.457-212.114 208.457-208.457c7.314-7.314 10.971-18.286 10.971-25.6s-3.657-18.286-10.971-25.6c-14.629-14.629-36.571-14.629-51.2 0l-208.457 208.457c-29.257 25.6-29.257 76.8 0 106.057z" />
<glyph unicode="&#xe95f;" glyph-name="printer" d="M863.086 660.114h-76.8v76.8c0 80.457-65.829 146.286-146.286 146.286h-292.571c-76.8 0-138.971-65.829-138.971-142.629v-84.114h-47.543c-65.829 0-124.343-58.514-124.343-124.343v-219.429c0-65.829 58.514-124.343 124.343-124.343h43.886v-69.486c0-58.514 47.543-106.057 106.057-106.057h362.057c62.171 0 109.714 47.543 109.714 106.057v69.486h76.8c65.829 0 124.343 58.514 124.343 124.343v219.429c0 69.486-54.857 128-120.686 128zM281.6 740.571c0 32.914 32.914 65.829 65.829 65.829h292.571c36.571 0 73.143-36.571 73.143-73.143v-76.8h-431.543v84.114zM709.486 122.514c0-21.943-18.286-32.914-36.571-32.914h-358.4c-21.943 0-32.914 18.286-32.914 32.914v197.486h431.543v-197.486zM910.629 316.343c0-25.6-25.6-51.2-51.2-51.2h-76.8v73.143c0 32.914-21.943 54.857-54.857 54.857h-464.457c-32.914 0-54.857-21.943-54.857-54.857v-73.143h-47.543c-25.6 0-51.2 25.6-51.2 51.2v219.429c0 25.6 25.6 51.2 51.2 51.2h698.514c25.6 0 51.2-25.6 51.2-51.2v-219.429zM808.229 535.771h-21.943c-21.943 0-36.571-14.629-36.571-36.571s14.629-36.571 36.571-36.571h21.943c21.943 0 36.571 14.629 36.571 36.571s-18.286 36.571-36.571 36.571z" />
<glyph unicode="&#xe960;" glyph-name="product-add" d="M833.829 923.429h-640c-73.143 0-135.314-62.171-135.314-135.314v-680.229c0-73.143 62.171-135.314 135.314-135.314h640c73.143 0 135.314 62.171 135.314 135.314v680.229c-3.657 73.143-62.171 135.314-135.314 135.314zM409.6 850.286h237.714v-212.114c-3.657-3.657-14.629-3.657-18.286-3.657l-32.914 29.257s-3.657 3.657-7.314 3.657c-29.257 18.286-73.143 18.286-102.4 0l-54.857-32.914c-7.314-3.657-14.629-3.657-21.943 0v215.771zM892.343 107.886c0-36.571-25.6-62.171-62.171-62.171h-636.343c-36.571 0-62.171 25.6-62.171 62.171v680.229c0 36.571 25.6 62.171 62.171 62.171h142.629v-219.429c0-25.6 14.629-47.543 36.571-58.514 14.629-7.314 29.257-10.971 47.543-10.971s32.914 3.657 47.543 14.629l54.857 32.914c7.314 3.657 18.286 3.657 25.6 0l32.914-29.257c25.6-18.286 65.829-21.943 98.743-7.314 25.6 14.629 40.229 36.571 40.229 62.171v215.771h113.371c36.571 0 62.171-25.6 62.171-62.171v-680.229zM263.314 254.171c-21.943 0-36.571-14.629-36.571-36.571v-73.143c0-21.943 14.629-36.571 36.571-36.571s36.571 14.629 36.571 36.571v73.143c0 21.943-18.286 36.571-36.571 36.571zM373.029 254.171c-21.943 0-36.571-14.629-36.571-36.571v-73.143c0-21.943 14.629-36.571 36.571-36.571s36.571 14.629 36.571 36.571v73.143c0 21.943-18.286 36.571-36.571 36.571zM482.743 254.171c-21.943 0-36.571-14.629-36.571-36.571v-73.143c0-21.943 14.629-36.571 36.571-36.571s36.571 14.629 36.571 36.571v73.143c0 21.943-18.286 36.571-36.571 36.571zM830.171 323.657h-91.429v87.771c0 21.943-14.629 36.571-36.571 36.571s-36.571-14.629-36.571-36.571v-87.771h-91.429c-21.943 0-36.571-14.629-36.571-36.571s14.629-36.571 36.571-36.571h91.429v-87.771c0-21.943 14.629-36.571 36.571-36.571s36.571 14.629 36.571 36.571v87.771h91.429c21.943 0 36.571 14.629 36.571 36.571 0 18.286-14.629 36.571-36.571 36.571z" />
<glyph unicode="&#xe961;" glyph-name="product-retrun" d="M95.086 495.543c21.943 0 36.571-14.629 36.571-36.571v-73.143c142.629 109.714 351.086 98.743 479.086-32.914 91.429-91.429 128-230.4 95.086-354.743-7.314-18.286-25.6-29.257-43.886-25.6-18.286 7.314-29.257 25.6-25.6 43.886 29.257 98.743 0 208.457-76.8 281.6-106.057 106.057-266.971 113.371-384 25.6h87.771c21.943 0 36.571-14.629 36.571-36.571s-14.629-36.571-36.571-36.571h-171.886c-10.971 0-18.286 3.657-25.6 10.971s-10.971 14.629-10.971 25.6v164.571c3.657 25.6 18.286 43.886 40.229 43.886zM830.171 923.429h-636.343c-73.143 0-135.314-62.171-135.314-135.314v-215.771c0-21.943 14.629-36.571 36.571-36.571s36.571 14.629 36.571 36.571v215.771c0 32.914 25.6 62.171 62.171 62.171h142.629v-219.429c0-25.6 14.629-47.543 36.571-58.514 14.629-7.314 29.257-10.971 47.543-10.971s32.914 3.657 47.543 14.629l54.857 32.914c7.314 3.657 18.286 3.657 25.6 0l32.914-29.257c25.6-18.286 65.829-21.943 98.743-7.314 25.6 14.629 40.229 36.571 40.229 62.171v215.771h113.371c32.914 0 62.171-29.257 62.171-62.171v-680.229c0-32.914-29.257-62.171-62.171-62.171h-160.914v-73.143h160.914c73.143 0 135.314 62.171 135.314 135.314v680.229c0 73.143-62.171 135.314-138.971 135.314zM647.314 638.171c-3.657-3.657-14.629-3.657-18.286-3.657l-32.914 29.257s-3.657 3.657-7.314 3.657c-29.257 18.286-73.143 18.286-102.4 0l-54.857-32.914c-7.314-3.657-14.629-3.657-21.943 0v215.771h237.714v-212.114zM252.343 188.343c-21.943 0-36.571-14.629-36.571-36.571v-73.143c0-21.943 14.629-36.571 36.571-36.571s36.571 14.629 36.571 36.571v73.143c0 18.286-14.629 36.571-36.571 36.571zM362.057 188.343c-21.943 0-36.571-14.629-36.571-36.571v-73.143c0-21.943 14.629-36.571 36.571-36.571s36.571 14.629 36.571 36.571v73.143c0 18.286-14.629 36.571-36.571 36.571zM471.771 188.343c-21.943 0-36.571-14.629-36.571-36.571v-73.143c0-21.943 14.629-36.571 36.571-36.571s36.571 14.629 36.571 36.571v73.143c0 18.286-14.629 36.571-36.571 36.571z" />
<glyph unicode="&#xe962;" glyph-name="product" d="M833.829 923.429h-640c-73.143 0-135.314-62.171-135.314-135.314v-680.229c0-73.143 62.171-135.314 135.314-135.314h640c73.143 0 135.314 62.171 135.314 135.314v680.229c-3.657 73.143-62.171 135.314-135.314 135.314zM409.6 850.286h237.714v-212.114c-3.657-3.657-14.629-3.657-18.286-3.657l-32.914 29.257s-3.657 3.657-7.314 3.657c-29.257 18.286-73.143 18.286-102.4 0l-54.857-32.914c-7.314-3.657-14.629-3.657-21.943 0v215.771zM892.343 107.886c0-36.571-25.6-62.171-62.171-62.171h-636.343c-36.571 0-62.171 25.6-62.171 62.171v680.229c0 36.571 25.6 62.171 62.171 62.171h142.629v-219.429c0-25.6 14.629-47.543 36.571-58.514 14.629-7.314 29.257-10.971 47.543-10.971s32.914 3.657 47.543 14.629l54.857 32.914c7.314 3.657 18.286 3.657 25.6 0l32.914-29.257c25.6-18.286 65.829-21.943 98.743-7.314 25.6 14.629 40.229 36.571 40.229 62.171v215.771h113.371c36.571 0 62.171-25.6 62.171-62.171v-680.229zM555.886 254.171c-21.943 0-36.571-14.629-36.571-36.571v-73.143c0-21.943 14.629-36.571 36.571-36.571s36.571 14.629 36.571 36.571v73.143c0 21.943-18.286 36.571-36.571 36.571zM665.6 254.171c-21.943 0-36.571-14.629-36.571-36.571v-73.143c0-21.943 14.629-36.571 36.571-36.571s36.571 14.629 36.571 36.571v73.143c0 21.943-18.286 36.571-36.571 36.571zM775.314 254.171c-21.943 0-36.571-14.629-36.571-36.571v-73.143c0-21.943 14.629-36.571 36.571-36.571s36.571 14.629 36.571 36.571v73.143c0 21.943-18.286 36.571-36.571 36.571z" />
<glyph unicode="&#xe963;" glyph-name="produt-group" d="M844.8 890.514h-457.143c-73.143 0-135.314-62.171-135.314-135.314v-460.8c0-73.143 62.171-135.314 135.314-135.314h457.143c73.143 0 135.314 62.171 135.314 135.314v460.8c0 73.143-62.171 135.314-135.314 135.314zM493.714 817.371h237.714v-212.114c-3.657-3.657-14.629-3.657-18.286-3.657l-32.914 29.257s-3.657 3.657-7.314 3.657c-29.257 18.286-73.143 18.286-102.4 0l-54.857-32.914c-7.314-3.657-14.629-3.657-21.943 0v215.771zM906.971 294.4c0-36.571-25.6-62.171-62.171-62.171h-457.143c-36.571 0-62.171 25.6-62.171 62.171v460.8c0 36.571 25.6 62.171 62.171 62.171h32.914v-219.429c0-25.6 14.629-47.543 36.571-58.514 14.629-7.314 29.257-10.971 47.543-10.971s32.914 3.657 47.543 14.629l54.857 32.914c7.314 3.657 18.286 3.657 25.6 0l32.914-29.257c25.6-18.286 65.829-21.943 98.743-7.314 25.6 14.629 40.229 36.571 40.229 62.171v215.771h40.229c36.571 0 62.171-25.6 62.171-62.171v-460.8zM457.143 440.686c-21.943 0-36.571-14.629-36.571-36.571v-73.143c0-21.943 14.629-36.571 36.571-36.571s36.571 14.629 36.571 36.571v73.143c0 18.286-14.629 36.571-36.571 36.571zM566.857 440.686c-21.943 0-36.571-14.629-36.571-36.571v-73.143c0-21.943 14.629-36.571 36.571-36.571s36.571 14.629 36.571 36.571v73.143c0 18.286-14.629 36.571-36.571 36.571zM676.571 440.686c-21.943 0-36.571-14.629-36.571-36.571v-73.143c0-21.943 14.629-36.571 36.571-36.571s36.571 14.629 36.571 36.571v73.143c0 18.286-14.629 36.571-36.571 36.571zM713.143 111.543c0-32.914-29.257-62.171-62.171-62.171h-457.143c-32.914 0-62.171 29.257-62.171 62.171v460.8c0 32.914 29.257 62.171 62.171 62.171 7.314 0 14.629 7.314 14.629 14.629v43.886c0 7.314-7.314 14.629-14.629 14.629-73.143 0-135.314-62.171-135.314-135.314v-460.8c0-73.143 62.171-135.314 135.314-135.314h457.143c73.143 0 135.314 62.171 135.314 135.314 0 10.971-7.314 18.286-18.286 18.286h-40.229c-7.314 0-14.629-7.314-14.629-18.286z" />
<glyph unicode="&#xe964;" glyph-name="push" d="M486.4 45.714c-223.086 0-402.286 179.2-402.286 402.286s179.2 402.286 402.286 402.286 402.286-179.2 402.286-402.286c0-106.057-43.886-208.457-117.029-285.257s-175.543-117.029-285.257-117.029zM486.4 777.143c-182.857 0-329.143-146.286-329.143-329.143s146.286-329.143 329.143-329.143 329.143 146.286 329.143 329.143-146.286 329.143-329.143 329.143zM413.257 630.857c21.943 0 36.571-14.629 36.571-36.571v-292.571c0-21.943-14.629-36.571-36.571-36.571s-36.571 14.629-36.571 36.571v292.571c0 21.943 18.286 36.571 36.571 36.571zM559.543 630.857c21.943 0 36.571-14.629 36.571-36.571v-292.571c0-21.943-14.629-36.571-36.571-36.571s-36.571 14.629-36.571 36.571v292.571c0 21.943 18.286 36.571 36.571 36.571z" />
<glyph unicode="&#xe965;" glyph-name="quotation" d="M654.629 905.143h-321.829c-73.143 0-135.314-62.171-135.314-135.314v-658.286c0-73.143 62.171-135.314 135.314-135.314h420.571c73.143 0 135.314 62.171 135.314 135.314v559.543c0 113.371-87.771 234.057-234.057 234.057zM811.886 704h-120.686c-7.314 0-14.629 7.314-14.629 14.629v109.714c76.8-7.314 120.686-69.486 135.314-124.343zM815.543 111.543c0-36.571-25.6-62.171-62.171-62.171h-420.571c-36.571 0-62.171 25.6-62.171 62.171v658.286c0 36.571 25.6 62.171 62.171 62.171h270.629v-113.371c0-51.2 40.229-87.771 87.771-87.771h124.343v-519.314zM574.171 451.657c-69.486 18.286-98.743 32.914-98.743 69.486 0 43.886 47.543 54.857 84.114 54.857 47.543 0 58.514-25.6 62.171-29.257 7.314-18.286 29.257-29.257 47.543-21.943s29.257 29.257 21.943 47.543c-7.314 25.6-36.571 62.171-95.086 73.143v51.2c0 21.943-14.629 36.571-36.571 36.571s-36.571-14.629-36.571-36.571v-51.2c-76.8-14.629-120.686-58.514-120.686-124.343 0-95.086 87.771-120.686 153.6-138.971 73.143-21.943 106.057-36.571 106.057-80.457 0-29.257-47.543-65.829-106.057-65.829-36.571 0-120.686 7.314-120.686 80.457 0 21.943-14.629 36.571-36.571 36.571s-36.571-14.629-36.571-36.571c0-84.114 62.171-138.971 157.257-149.943v-40.229c0-21.943 14.629-36.571 36.571-36.571s36.571 14.629 36.571 36.571v40.229c80.457 14.629 142.629 69.486 142.629 135.314 0 102.4-91.429 128-160.914 149.943z" />
</font>
</defs>
</svg>
